<?xml version="1.0" standalone="no"?>
<!DOCTYPE svg PUBLIC "-//W3C//DTD SVG 1.1//EN" "http://www.w3.org/Graphics/SVG/1.1/DTD/svg11.dtd" >
<svg xmlns="http://www.w3.org/2000/svg" xmlns:xlink="http://www.w3.org/1999/xlink" version="1.1">
<metadata>
Created by FontForge 20201107 at Wed Mar  6 01:23:11 2024
 By 
Copyright (C) 2001, 2011 Hoefler &#38; Co. http://www.typography.com |DCNT
</metadata>
<defs>
<font id="Gotham-Black" horiz-adv-x="819" >
  <font-face 
    font-family="Gotham Black"
    font-weight="900"
    font-stretch="normal"
    units-per-em="2048"
    panose-1="0 0 0 0 0 0 0 0 0 0"
    ascent="1638"
    descent="-410"
    x-height="1108"
    cap-height="1434"
    bbox="-469 -641 2580 2136"
    underline-thickness="102"
    underline-position="-204"
    unicode-range="U+0020-FB04"
  />
<missing-glyph horiz-adv-x="1024" 
d="M0 -410v2048h1024v-2048h-1024zM145 1536l367 -799l367 799h-734zM102 -156l353 770l-353 770v-1540zM922 1384l-353 -770l353 -770v1540zM512 492l-367 -799h734z" />
    <glyph glyph-name="f_f" unicode="ff" horiz-adv-x="1654" 
d="M174 0v797h-129v307h129v22q0 193 94 287q96 96 291 96q154 0 252 -30v-275q-77 23 -145 23q-111 0 -111 -105v-26h256v-299h-248v-797h-389zM1001 0v797h-129v301h129v28q0 192 95 287q96 96 290 96q154 0 252 -30v-275q-77 23 -145 23q-111 0 -111 -105v-26h256v-299
h-247v-797h-390z" />
    <glyph glyph-name="fi" unicode="fi" horiz-adv-x="1443" 
d="M174 0v797h-129v307h129v22q0 193 94 287q96 96 291 96q154 0 252 -30v-275q-77 23 -145 23q-111 0 -111 -105v-26h256v-299h-248v-797h-389zM942 0v1108h387v-1108h-387zM934 1208v287h403v-287h-403z" />
    <glyph glyph-name="fl" unicode="fl" horiz-adv-x="1443" 
d="M174 0v797h-129v307h129v22q0 193 94 287q96 96 291 96q154 0 252 -30v-275q-77 23 -145 23q-111 0 -111 -105v-26h256v-299h-248v-797h-389zM942 0v1495h387v-1495h-387z" />
    <glyph glyph-name="f_f_i" unicode="ffi" horiz-adv-x="2271" 
d="M174 0v797h-129v307h129v22q0 193 94 287q96 96 291 96q154 0 252 -30v-275q-77 23 -145 23q-111 0 -111 -105v-26h256v-299h-248v-797h-389zM1001 0v797h-129v301h129v28q0 192 95 287q96 96 290 96q154 0 252 -30v-275q-77 23 -145 23q-111 0 -111 -105v-26h256v-299
h-247v-797h-390zM1769 0v1108h388v-1108h-388zM1761 1208v287h404v-287h-404z" />
    <glyph glyph-name="f_f_l" unicode="ffl" horiz-adv-x="2271" 
d="M174 0v797h-129v307h129v22q0 193 94 287q96 96 291 96q154 0 252 -30v-275q-77 23 -145 23q-111 0 -111 -105v-26h256v-299h-248v-797h-389zM1001 0v797h-129v301h129v28q0 192 95 287q96 96 290 96q154 0 252 -30v-275q-77 23 -145 23q-111 0 -111 -105v-26h256v-299
h-247v-797h-390zM1769 0v1495h388v-1495h-388z" />
    <glyph glyph-name=".notdef" horiz-adv-x="1024" 
d="M0 -410v2048h1024v-2048h-1024zM145 1536l367 -799l367 799h-734zM102 -156l353 770l-353 770v-1540zM922 1384l-353 -770l353 -770v1540zM512 492l-367 -799h734z" />
    <glyph glyph-name=".null" horiz-adv-x="0" 
 />
    <glyph glyph-name="nonmarkingreturn" horiz-adv-x="682" 
 />
    <glyph glyph-name="space" unicode=" " horiz-adv-x="614" 
 />
    <glyph glyph-name="exclam" unicode="!" horiz-adv-x="663" 
d="M231 467l-120 793v174h442v-174l-119 -793h-203zM131 0v348h404v-348h-404z" />
    <glyph glyph-name="quotedbl" unicode="&#x22;" horiz-adv-x="1099" 
d="M596 698l45 736h418v-11l-260 -725h-203zM70 698l47 736h415v-11l-258 -725h-204z" />
    <glyph glyph-name="numbersign" unicode="#" horiz-adv-x="1445" 
d="M1317 606v-330h-246l-47 -276h-295l47 276h-260l-47 -276h-297l47 276h-158v330h213l41 232h-186v327h242l47 269h297l-47 -269h260l47 269h295l-47 -269h161v-327h-217l-41 -232h191zM604 850l-43 -256h279l45 256h-281z" />
    <glyph glyph-name="dollar" unicode="$" horiz-adv-x="1363" 
d="M1253 1272l-168 -277q-125 88 -274 125v-243q255 -61 372 -160.5t117 -282.5v-4q0 -185 -130.5 -297t-352.5 -133v-201h-213v203q-319 36 -553 205l185 272q205 -139 380 -170v248q-128 30 -217 66t-154 88t-95.5 123.5t-30.5 166.5v5q0 182 128.5 296.5t360.5 131.5v118
h213v-122q241 -33 432 -158zM946 403v5q0 42 -29.5 67.5t-107.5 48.5v-225q137 12 137 104zM479 1036v-4q0 -43 28.5 -69t110.5 -48v222q-139 -8 -139 -101z" />
    <glyph glyph-name="percent" unicode="%" horiz-adv-x="1841" 
d="M440 684q-161 0 -264.5 110.5t-103.5 270.5v4q0 162 103 273.5t267 111.5q163 0 266 -110t103 -273v-4q0 -159 -104.5 -271t-266.5 -112zM440 1231q-53 0 -85.5 -45t-32.5 -115v-4q0 -68 34.5 -114t85.5 -46q53 0 86 44.5t33 113.5v4q0 70 -34 116t-87 46zM834 772
l501 662h277l-611 -781l-495 -653h-277zM1399 -20q-162 0 -265.5 111.5t-103.5 270.5v5q0 162 103.5 273.5t267.5 111.5q163 0 265.5 -110t102.5 -273v-4q0 -160 -104 -272.5t-266 -112.5zM1401 205q53 0 86 44.5t33 112.5v5q0 70 -34 115.5t-87 45.5q-55 0 -87 -44.5
t-32 -114.5v-4q0 -67 35 -113.5t86 -46.5z" />
    <glyph glyph-name="ampersand" unicode="&#x26;" horiz-adv-x="1429" 
d="M1128 -29l-147 150q-200 -146 -426 -146q-145 0 -260 49t-182.5 144.5t-67.5 222.5v4q0 269 291 400q-94 133 -94 276v4q0 161 122.5 274t325.5 113q192 0 309 -104.5t117 -261.5v-4q0 -248 -280 -373l159 -158q66 96 135 227l263 -131q-96 -177 -189 -303l193 -190z
M649 895q152 68 152 176v4q0 53 -30.5 84t-80.5 31q-51 0 -83 -35t-32 -92v-4q0 -69 74 -164zM608 268q85 0 172 62l-237 241q-103 -62 -103 -157v-4q0 -63 47 -102.5t121 -39.5z" />
    <glyph glyph-name="quotesingle" unicode="'" horiz-adv-x="581" 
d="M70 698l47 736h424v-11l-260 -725h-211z" />
    <glyph glyph-name="parenleft" unicode="(" horiz-adv-x="911" 
d="M850 -49l-162 -240q-300 158 -448 366.5t-148 510.5v2q0 300 149.5 511t446.5 363l162 -239q-198 -136 -288.5 -286.5t-90.5 -350.5v-2q0 -197 90 -347.5t289 -287.5z" />
    <glyph glyph-name="parenright" unicode=")" horiz-adv-x="911" 
d="M223 -289l-160 240q198 137 287.5 287t89.5 350v2q0 197 -90 348.5t-287 286.5l160 239q198 -105 326.5 -225t200 -283.5t71.5 -367.5v-2q0 -298 -151 -510.5t-447 -364.5z" />
    <glyph glyph-name="asterisk" unicode="*" horiz-adv-x="870" 
d="M328 694l51 271l-209 -181l-113 191l262 92l-262 92l113 189l209 -181l-51 271h215l-51 -271l210 181l111 -189l-260 -92l260 -92l-111 -191l-210 181l51 -271h-215z" />
    <glyph glyph-name="plus" unicode="+" horiz-adv-x="1310" 
d="M477 193v356h-360v344h360v356h357v-356h360v-344h-360v-356h-357z" />
    <glyph glyph-name="comma" unicode="," horiz-adv-x="581" 
d="M74 -338l-33 150q105 11 157 59.5t48 132.5h-156v399h404v-325q0 -111 -29.5 -191.5t-86 -128.5t-131 -71t-173.5 -25z" />
    <glyph glyph-name="hyphen" unicode="-" horiz-adv-x="835" 
d="M82 471v340h672v-340h-672z" />
    <glyph glyph-name="period" unicode="." horiz-adv-x="579" 
d="M88 0v399h404v-399h-404z" />
    <glyph glyph-name="slash" unicode="/" horiz-adv-x="1095" 
d="M-78 -262l907 1896h316l-907 -1896h-316z" />
    <glyph glyph-name="zero" unicode="0" horiz-adv-x="1495" 
d="M745 -29q-149 0 -274.5 59t-209.5 160t-130.5 236t-46.5 287v4q0 152 47.5 287.5t132 237t211 161t275.5 59.5q198 0 350.5 -101t231.5 -268.5t79 -371.5v-4q0 -152 -47 -288t-131.5 -237.5t-211 -161t-276.5 -59.5zM750 324q119 0 190.5 108.5t71.5 280.5v4
q0 173 -74.5 284t-192.5 111t-190 -109t-72 -282v-4q0 -174 74.5 -283.5t192.5 -109.5z" />
    <glyph glyph-name="one" unicode="1" horiz-adv-x="864" 
d="M334 0v1075l-242 -57l-76 307l420 119h289v-1444h-391z" />
    <glyph glyph-name="two" unicode="2" horiz-adv-x="1277" 
d="M68 0v299l536 410q103 80 145 137t42 121q0 68 -44 107.5t-118 39.5q-70 0 -133.5 -43t-151.5 -143l-268 223q82 105 159 168.5t183.5 101t240.5 37.5q234 0 381.5 -127.5t147.5 -329.5v-4q0 -84 -20.5 -152t-67 -128t-101.5 -108.5t-143 -112.5l-246 -172h592v-324
h-1134z" />
    <glyph glyph-name="three" unicode="3" horiz-adv-x="1271" 
d="M647 -29q-380 0 -610 254l252 250q82 -82 164 -123t178 -41q85 0 133.5 39.5t48.5 106.5v4q0 70 -59.5 108.5t-173.5 38.5h-168l-56 207l328 297h-547v322h1034v-283l-342 -295q371 -81 371 -403v-4q0 -214 -156 -346t-397 -132z" />
    <glyph glyph-name="four" unicode="4" horiz-adv-x="1411" 
d="M788 0v279h-696l-63 280l743 885h399v-869h183v-296h-183v-279h-383zM444 573h344v414z" />
    <glyph glyph-name="five" unicode="5" horiz-adv-x="1290" 
d="M621 -29q-181 0 -320.5 58.5t-259.5 169.5l227 266q183 -156 348 -156q98 0 153.5 45t55.5 123v4q0 77 -58 121.5t-153 44.5q-110 0 -229 -72l-235 134l40 725h959v-328h-645l-12 -217q109 51 229 51q98 0 185 -28t156 -82t109.5 -143t40.5 -202v-4q0 -235 -163 -372.5
t-428 -137.5z" />
    <glyph glyph-name="six" unicode="6" horiz-adv-x="1355" 
d="M698 -29q-148 0 -252 41t-186 123q-176 176 -176 537v4q0 169 41.5 311t122.5 249t209.5 166.5t292.5 59.5q147 0 258 -38t219 -119l-187 -279q-73 55 -138 82t-146 27q-59 0 -106.5 -21.5t-76 -53.5t-48.5 -75.5t-28.5 -81t-11.5 -76.5q142 111 310 111q128 0 234 -50.5
t172.5 -153.5t66.5 -242v-5q0 -155 -77.5 -274t-206.5 -180.5t-286 -61.5zM682 281q92 0 146.5 52t54.5 132v4q0 79 -56.5 131.5t-148.5 52.5t-145.5 -51t-53.5 -131v-4q0 -80 55.5 -133t147.5 -53z" />
    <glyph glyph-name="seven" unicode="7" horiz-adv-x="1257" 
d="M127 0l631 1100h-664v334h1104v-299l-633 -1135h-438z" />
    <glyph glyph-name="eight" unicode="8" horiz-adv-x="1290" 
d="M645 -25q-259 0 -423.5 116.5t-164.5 303.5v4q0 127 61.5 210t182.5 134q-195 113 -195 314v4q0 173 149.5 285t389.5 112t390.5 -112t150.5 -285v-4q0 -204 -197 -314q117 -53 181.5 -135t64.5 -205v-4q0 -127 -75.5 -224t-209.5 -148.5t-305 -51.5zM645 852
q79 0 128.5 45t49.5 113v4q0 63 -48 107t-130 44q-79 0 -127.5 -44.5t-48.5 -106.5v-4q0 -68 49 -113t127 -45zM645 272q96 0 151.5 46.5t55.5 115.5v4q0 72 -57 115t-150 43t-150 -43t-57 -115v-4q0 -69 55.5 -115.5t151.5 -46.5z" />
    <glyph glyph-name="nine" unicode="9" horiz-adv-x="1355" 
d="M602 301q60 0 107.5 20.5t76 51t48.5 73t28.5 79t11.5 75.5q-126 -117 -305 -117q-213 0 -347 123.5t-134 331.5v4q0 155 74.5 274.5t203.5 182.5t293 63q150 0 253 -40.5t188 -125.5q172 -172 172 -532v-4q0 -235 -75.5 -411.5t-226 -277t-360.5 -100.5q-284 0 -501 170
l186 275q75 -60 148 -87.5t159 -27.5zM678 768q92 0 146.5 53t54.5 133v4q0 86 -56.5 141.5t-148.5 55.5t-146.5 -54t-54.5 -140v-5q0 -83 56 -135.5t149 -52.5z" />
    <glyph glyph-name="colon" unicode=":" horiz-adv-x="600" 
d="M98 709v399h404v-399h-404zM98 0v399h404v-399h-404z" />
    <glyph glyph-name="semicolon" unicode=";" horiz-adv-x="602" 
d="M100 709v399h404v-399h-404zM84 -342l-33 149q105 11 157 60t48 133h-156v399h404v-325q0 -111 -29.5 -191.5t-86 -128.5t-131 -71t-173.5 -25z" />
    <glyph glyph-name="less" unicode="&#x3c;" horiz-adv-x="1310" 
d="M1147 135l-1018 406v360l1018 406v-361l-670 -225l670 -223v-363z" />
    <glyph glyph-name="equal" unicode="=" horiz-adv-x="1310" 
d="M129 825v338h1053v-338h-1053zM129 281v335h1053v-335h-1053z" />
    <glyph glyph-name="greater" unicode="&#x3e;" horiz-adv-x="1310" 
d="M164 135v361l670 223l-670 225v363l1018 -406v-360z" />
    <glyph glyph-name="question" unicode="?" horiz-adv-x="1107" 
d="M393 467l-53 344l18 16q172 13 247 54t75 110v4q0 54 -41 83.5t-115 29.5q-149 0 -299 -135l-205 268q215 215 531 215q229 0 370.5 -116t141.5 -314v-4q0 -93 -29.5 -166t-85.5 -122.5t-125 -82t-159 -53.5l-25 -131h-246zM307 0v348h404v-348h-404z" />
    <glyph glyph-name="at" unicode="@" horiz-adv-x="1976" 
d="M1008 -332q-156 0 -298 45t-253 127t-193.5 192.5t-126 246.5t-43.5 284q0 183 69.5 348.5t189 286.5t289 192.5t359.5 71.5q185 0 350.5 -65.5t281.5 -174.5t183.5 -254.5t67.5 -301.5q0 -134 -36.5 -241.5t-98 -173t-139 -100t-162.5 -34.5q-228 0 -318 155
q-129 -149 -301 -149q-163 0 -268.5 111.5t-105.5 297.5q0 144 62 267t167 194.5t225 71.5q175 0 275 -152l24 125l316 -49l-94 -528q-9 -46 -9 -90q0 -53 36 -87t97 -34q107 0 175.5 109.5t68.5 306.5q0 141 -60 271.5t-163.5 228t-253.5 156t-320 58.5q-177 0 -331 -64.5
t-260.5 -174.5t-168 -260.5t-61.5 -317.5q0 -170 61 -320t169 -258.5t263 -171.5t335 -63q148 0 263 33t238 104l41 -65q-253 -154 -542 -154zM932 397q73 0 127 54q71 71 71 182q0 72 -42 115t-107 43q-73 0 -129 -56q-70 -70 -70 -178q0 -76 41 -118t109 -42z" />
    <glyph glyph-name="A" unicode="A" horiz-adv-x="1628" 
d="M14 0l609 1444h383l610 -1444h-426l-103 258h-555l-102 -258h-416zM649 567h322l-160 406z" />
    <glyph glyph-name="B" unicode="B" horiz-adv-x="1464" 
d="M127 0v1434h735q261 0 391 -127q93 -96 93 -234v-4q0 -224 -222 -319q139 -45 212 -128.5t73 -222.5v-4q0 -186 -143 -290.5t-400 -104.5h-739zM954 987v4q0 123 -180 123h-260v-252h250q190 0 190 125zM1012 451v4q0 62 -48.5 95.5t-146.5 33.5h-303v-265h307
q92 0 141.5 34.5t49.5 97.5z" />
    <glyph glyph-name="C" unicode="C" horiz-adv-x="1497" 
d="M819 -29q-203 0 -372 95.5t-268 266t-99 380.5v4q0 155 57.5 292.5t156.5 237t239.5 157.5t300.5 58q395 0 608 -297l-299 -231q-67 82 -141.5 125t-172.5 43q-148 0 -245 -111t-97 -270v-4q0 -163 96.5 -273t245.5 -110q105 0 177.5 43.5t146.5 130.5l299 -213
q-114 -155 -263 -239.5t-370 -84.5z" />
    <glyph glyph-name="D" unicode="D" horiz-adv-x="1568" 
d="M127 0v1434h555q188 0 340.5 -52.5t254.5 -146t157 -224t55 -286.5v-4q0 -156 -55.5 -288t-158.5 -228.5t-257.5 -150.5t-343.5 -54h-547zM686 1083h-162v-731h162q182 0 289.5 96t107.5 267v4q0 171 -107.5 267.5t-289.5 96.5z" />
    <glyph glyph-name="E" unicode="E" horiz-adv-x="1368" 
d="M127 0v1434h1153v-336h-760v-219h688v-314h-688v-227h770v-338h-1163z" />
    <glyph glyph-name="F" unicode="F" horiz-adv-x="1329" 
d="M127 0v1434h1147v-349h-750v-243h678v-330h-678v-512h-397z" />
    <glyph glyph-name="G" unicode="G" horiz-adv-x="1574" 
d="M858 -29q-222 0 -399.5 94t-278 263.5t-100.5 384.5v4q0 155 58.5 292.5t160 237t245 157.5t306.5 58q183 0 322 -52t260 -155l-234 -282q-82 69 -162 102t-184 33q-154 0 -260.5 -113.5t-106.5 -277.5v-4q0 -175 109.5 -287.5t279.5 -112.5q142 0 230 60v174h-281v291
h658v-643q-267 -224 -623 -224z" />
    <glyph glyph-name="H" unicode="H" horiz-adv-x="1558" 
d="M127 0v1434h397v-537h510v537h398v-1434h-398v545h-510v-545h-397z" />
    <glyph glyph-name="I" unicode="I" horiz-adv-x="669" 
d="M137 0v1434h398v-1434h-398z" />
    <glyph glyph-name="J" unicode="J" horiz-adv-x="1155" 
d="M512 -25q-177 0 -297.5 64t-206.5 178l256 242q58 -68 109.5 -100.5t115.5 -32.5q75 0 118.5 51t43.5 149v908h396v-910q0 -261 -142 -403q-146 -146 -393 -146z" />
    <glyph glyph-name="K" unicode="K" horiz-adv-x="1495" 
d="M127 0v1434h397v-582l494 582h471l-543 -615l561 -819h-475l-362 532l-146 -159v-373h-397z" />
    <glyph glyph-name="L" unicode="L" horiz-adv-x="1263" 
d="M127 0v1434h397v-1086h695v-348h-1092z" />
    <glyph glyph-name="M" unicode="M" horiz-adv-x="1777" 
d="M127 0v1434h420l342 -555l342 555h420v-1434h-396v823l-366 -561h-8l-365 559v-821h-389z" />
    <glyph glyph-name="N" unicode="N" horiz-adv-x="1607" 
d="M127 0v1434h371l589 -758v758h394v-1434h-346l-615 786v-786h-393z" />
    <glyph glyph-name="O" unicode="O" horiz-adv-x="1701" 
d="M850 -29q-163 0 -306.5 58.5t-245 158.5t-160 236.5t-58.5 288.5v4q0 152 59.5 289.5t161.5 237.5t246 159t307 59q217 0 394 -99.5t276.5 -269t99.5 -372.5v-4q0 -152 -59.5 -290t-161.5 -238t-246 -159t-307 -59zM854 330q159 0 261 112t102 271v4q0 161 -103 274
t-264 113t-263 -112t-102 -271v-4q0 -158 104.5 -272.5t264.5 -114.5z" />
    <glyph glyph-name="P" unicode="P" horiz-adv-x="1378" 
d="M127 0v1434h616q273 0 433.5 -133.5t160.5 -368.5v-4q0 -166 -80.5 -284.5t-217.5 -176t-316 -57.5h-199v-410h-397zM524 721h191q104 0 165.5 51t61.5 137v4q0 91 -60.5 139t-168.5 48h-189v-379z" />
    <glyph glyph-name="Q" unicode="Q" horiz-adv-x="1701" 
d="M1645 180l-201 -223l-158 141q-190 -127 -436 -127q-163 0 -306.5 58.5t-245 158.5t-160 236.5t-58.5 288.5v4q0 152 59.5 289.5t161.5 237.5t246 159t307 59q217 0 394 -99.5t276.5 -269t99.5 -372.5v-4q0 -220 -127 -412zM854 324q74 0 141 26l-196 170l200 225
l195 -178q25 70 25 144v4q0 159 -104.5 274t-264.5 115q-106 0 -190.5 -54t-129.5 -142t-45 -191v-4q0 -104 45.5 -192.5t131 -142.5t192.5 -54z" />
    <glyph glyph-name="R" unicode="R" horiz-adv-x="1472" 
d="M127 0v1434h678q313 0 467 -154q127 -127 127 -334v-4q0 -161 -77.5 -272t-217.5 -170l342 -500h-457l-289 434h-176v-434h-397zM524 745h264q99 0 156 46t57 124v5q0 84 -57 128t-158 44h-262v-347z" />
    <glyph glyph-name="S" unicode="S" horiz-adv-x="1335" 
d="M690 -25q-194 0 -366 60.5t-306 177.5l222 264q217 -172 465 -172q165 0 165 98v5q0 46 -48.5 74.5t-194.5 64.5q-73 17 -126 31.5t-113 36t-102 45t-82 57t-64.5 73t-39 91.5t-14.5 114v4q0 204 150.5 331.5t404.5 127.5q353 0 590 -190l-199 -281q-192 141 -401 141
q-70 0 -107 -25t-37 -67v-4q0 -33 20.5 -55t74.5 -42t155 -42q131 -29 223 -63.5t165 -86t109 -125.5t36 -172v-4q0 -217 -158 -342t-422 -125z" />
    <glyph glyph-name="T" unicode="T" horiz-adv-x="1351" 
d="M477 0v1085h-428v349h1256v-349h-431v-1085h-397z" />
    <glyph glyph-name="U" unicode="U" horiz-adv-x="1552" 
d="M772 -27q-154 0 -275 39.5t-207.5 119t-132.5 205t-46 292.5v805h401v-797q0 -152 69.5 -228.5t194.5 -76.5q127 0 196.5 73.5t69.5 221.5v807h402v-795q0 -170 -47.5 -298t-136 -208.5t-211 -120t-277.5 -39.5z" />
    <glyph glyph-name="V" unicode="V" horiz-adv-x="1556" 
d="M594 -10l-580 1444h443l325 -908l328 908h434l-581 -1444h-369z" />
    <glyph glyph-name="W" unicode="W" horiz-adv-x="2287" 
d="M510 -10l-479 1444h420l249 -830l277 834h342l276 -834l250 830h412l-479 -1444h-346l-287 825l-289 -825h-346z" />
    <glyph glyph-name="X" unicode="X" horiz-adv-x="1499" 
d="M1010 1434h446l-471 -699l492 -735h-457l-275 434l-276 -434h-446l491 729l-471 705h457l252 -404z" />
    <glyph glyph-name="Y" unicode="Y" horiz-adv-x="1480" 
d="M543 0v537l-547 897h453l294 -523l297 523h445l-545 -891v-543h-397z" />
    <glyph glyph-name="Z" unicode="Z" horiz-adv-x="1429" 
d="M84 0v289l719 811h-694v334h1241v-287l-719 -811h719v-336h-1266z" />
    <glyph glyph-name="bracketleft" unicode="[" horiz-adv-x="937" 
d="M137 -266v1700h707v-265h-361v-1171h361v-264h-707z" />
    <glyph glyph-name="backslash" unicode="\" horiz-adv-x="1095" 
d="M858 -262l-907 1896h315l908 -1896h-316z" />
    <glyph glyph-name="bracketright" unicode="]" horiz-adv-x="937" 
d="M94 -266v264h361v1171h-361v265h707v-1700h-707z" />
    <glyph glyph-name="asciicircum" unicode="^" horiz-adv-x="1024" 
d="M86 1010l295 422h262l295 -422h-272l-156 198l-156 -198h-268z" />
    <glyph glyph-name="underscore" unicode="_" horiz-adv-x="1228" 
d="M-4 -328v238h1237v-238h-1237z" />
    <glyph glyph-name="grave" unicode="`" horiz-adv-x="1024" 
d="M483 1204l-301 260l361 117l211 -377h-271z" />
    <glyph glyph-name="a" unicode="a" horiz-adv-x="1226" 
d="M422 -25q-163 0 -267 91t-104 251v5q0 169 117 258.5t317 89.5q159 0 267 -43v18q0 182 -222 182q-151 0 -307 -61l-80 272q211 86 449 86q287 0 422 -135q119 -116 119 -352v-637h-383v117q-135 -142 -328 -142zM561 219q87 0 141 49t54 133v52q-72 28 -154 28
q-85 0 -131.5 -36.5t-46.5 -100.5v-4q0 -56 38 -88.5t99 -32.5z" />
    <glyph glyph-name="b" unicode="b" horiz-adv-x="1384" 
d="M831 -25q-115 0 -193 42.5t-144 117.5v-135h-390v1495h390v-534q67 81 144 126.5t191 45.5q98 0 187.5 -40.5t157 -113t107.5 -182t40 -238.5v-4q0 -131 -39.5 -241.5t-107 -184t-156.5 -114t-187 -40.5zM713 301q94 0 160.5 71t66.5 181v4q0 108 -66.5 180t-160.5 72
q-96 0 -162 -71.5t-66 -180.5v-4q0 -109 66 -180.5t162 -71.5z" />
    <glyph glyph-name="c" unicode="c" horiz-adv-x="1165" 
d="M641 -27q-164 0 -298 78.5t-208 210t-74 287.5v4q0 156 74 287.5t210.5 210.5t307.5 79q313 0 473 -245l-262 -197q-44 58 -93 87.5t-114 29.5q-94 0 -156.5 -72t-62.5 -176v-4q0 -107 62 -179.5t159 -72.5q68 0 116.5 28.5t96.5 86.5l261 -189q-83 -123 -200.5 -188.5
t-291.5 -65.5z" />
    <glyph glyph-name="d" unicode="d" horiz-adv-x="1384" 
d="M555 -25q-98 0 -187.5 40.5t-157 113t-107.5 182t-40 238.5v4q0 131 39.5 241.5t107 184t156.5 114t187 40.5q201 0 338 -160v522h389v-1495h-389v147q-67 -81 -144.5 -126.5t-191.5 -45.5zM672 301q96 0 161.5 71.5t65.5 180.5v4q0 109 -65.5 180.5t-161.5 71.5
q-94 0 -161 -72t-67 -180v-4q0 -108 67 -180t161 -72z" />
    <glyph glyph-name="e" unicode="e" horiz-adv-x="1241" 
d="M655 -27q-262 0 -428 160t-166 416v4q0 160 71 292.5t199.5 210t289.5 77.5q111 0 203.5 -32t157.5 -88t109.5 -132.5t65.5 -166t21 -188.5q0 -53 -2 -80h-742q46 -182 240 -182q72 0 129 26.5t117 86.5l215 -178q-175 -226 -480 -226zM428 645h387q-11 93 -63 147
t-131 54q-76 0 -125.5 -53.5t-67.5 -147.5z" />
    <glyph glyph-name="f" unicode="f" horiz-adv-x="827" 
d="M174 0v797h-129v307h129v22q0 193 94 287q96 96 291 96q154 0 252 -30v-275q-77 23 -145 23q-111 0 -111 -105v-26h256v-299h-248v-797h-389z" />
    <glyph glyph-name="g" unicode="g" horiz-adv-x="1384" 
d="M649 -332q-302 0 -553 127l125 258q191 -104 387 -104q289 0 289 272v43q-70 -78 -149 -122t-191 -44q-137 0 -248.5 61.5t-178.5 180t-67 272.5v4q0 116 39.5 214.5t105.5 164t153 102t182 36.5q118 0 198 -40.5t150 -115.5v131h389v-842q0 -302 -143 -442
q-150 -156 -488 -156zM672 397q99 0 163 61t64 154v4q0 92 -64.5 153.5t-162.5 61.5q-99 0 -163.5 -61.5t-64.5 -155.5v-4q0 -92 64 -152.5t164 -60.5z" />
    <glyph glyph-name="h" unicode="h" horiz-adv-x="1298" 
d="M104 0v1495h390v-539q139 177 331 177q178 0 277.5 -108.5t99.5 -299.5v-725h-387v600q0 91 -42.5 139.5t-115.5 48.5q-74 0 -118.5 -49t-44.5 -139v-600h-390z" />
    <glyph glyph-name="i" unicode="i" horiz-adv-x="616" 
d="M106 1208v287h404v-287h-404zM115 0v1108h387v-1108h-387z" />
    <glyph glyph-name="j" unicode="j" horiz-adv-x="616" 
d="M106 1208v287h404v-287h-404zM109 -334q-74 0 -162 15v258q40 -5 51 -5q59 0 88 31t29 101v1042h387v-1059q0 -204 -99 -293.5t-294 -89.5z" />
    <glyph glyph-name="k" unicode="k" horiz-adv-x="1234" 
d="M104 0v1495h390v-758l301 371h440l-385 -442l395 -666h-430l-221 379l-100 -117v-262h-390z" />
    <glyph glyph-name="l" unicode="l" horiz-adv-x="616" 
d="M115 0v1495h387v-1495h-387z" />
    <glyph glyph-name="m" unicode="m" horiz-adv-x="1988" 
d="M104 0v1108h390v-152q139 177 329 177q110 0 193 -47t127 -134q76 90 164 135.5t206 45.5q179 0 279 -106t100 -300v-727h-389v602q0 91 -40.5 138.5t-110.5 47.5q-72 0 -116 -48.5t-44 -137.5v-602h-387v602q0 90 -41.5 138t-112.5 48t-114 -48t-43 -138v-602h-390z" />
    <glyph glyph-name="n" unicode="n" horiz-adv-x="1298" 
d="M104 0v1108h390v-156q142 181 331 181q178 0 277.5 -108.5t99.5 -299.5v-725h-387v600q0 91 -42.5 139.5t-115.5 48.5q-74 0 -118.5 -49t-44.5 -139v-600h-390z" />
    <glyph glyph-name="o" unicode="o" horiz-adv-x="1343" 
d="M670 -27q-129 0 -243 45.5t-194 123t-126 183.5t-46 224v4q0 118 46.5 224.5t127 184.5t195 124.5t244.5 46.5q173 0 313.5 -78t218.5 -210t78 -288v-4q0 -157 -79 -290t-220.5 -211.5t-314.5 -78.5zM674 303q103 0 168 71.5t65 174.5v4q0 105 -67 178.5t-170 73.5
q-104 0 -168 -71.5t-64 -176.5v-4q0 -103 67.5 -176.5t168.5 -73.5z" />
    <glyph glyph-name="p" unicode="p" horiz-adv-x="1384" 
d="M104 -328v1436h390v-147q67 81 144 126.5t191 45.5q98 0 187.5 -40.5t157 -113t107.5 -182t40 -238.5v-4q0 -131 -39.5 -241.5t-107 -184t-156.5 -114t-187 -40.5q-115 0 -193 42.5t-144 117.5v-463h-390zM713 301q94 0 160.5 71t66.5 181v4q0 108 -66.5 180t-160.5 72
q-96 0 -162 -71.5t-66 -180.5v-4q0 -109 66 -180.5t162 -71.5z" />
    <glyph glyph-name="q" unicode="q" horiz-adv-x="1384" 
d="M891 -328v475q-67 -81 -144.5 -126.5t-191.5 -45.5q-98 0 -187.5 40.5t-157 113t-107.5 182t-40 238.5v4q0 131 39.5 241.5t107 184t156.5 114t187 40.5q201 0 338 -160v135h389v-1436h-389zM672 301q96 0 161.5 71.5t65.5 180.5v4q0 109 -65.5 180.5t-161.5 71.5
q-94 0 -161 -72t-67 -180v-4q0 -108 67 -180t161 -72z" />
    <glyph glyph-name="r" unicode="r" horiz-adv-x="876" 
d="M104 0v1108h390v-223q51 121 134.5 184t215.5 57v-409h-33q-317 0 -317 -371v-346h-390z" />
    <glyph glyph-name="s" unicode="s" horiz-adv-x="1052" 
d="M545 -25q-296 0 -522 166l145 234q195 -127 379 -127q100 0 100 59v4q0 35 -58 59q-29 12 -122 38q-92 23 -155.5 48t-121.5 65t-87 99.5t-29 139.5v4q0 172 124 269t320 97q254 0 457 -129l-133 -245q-85 49 -173 76.5t-155 27.5q-43 0 -66.5 -15t-23.5 -40v-4
q0 -30 39.5 -49t140.5 -50q73 -20 126 -39t106 -48.5t86.5 -65t54 -86t20.5 -113.5v-4q0 -179 -122 -275t-330 -96z" />
    <glyph glyph-name="t" unicode="t" horiz-adv-x="882" 
d="M545 -23q-183 0 -277 87.5t-94 279.5v453h-131v311h131v281h387v-281h258v-311h-258v-377q0 -59 26 -85t81 -26q71 0 147 37v-303q-122 -66 -270 -66z" />
    <glyph glyph-name="u" unicode="u" horiz-adv-x="1298" 
d="M475 -25q-178 0 -278.5 109.5t-100.5 300.5v723h389v-600q0 -90 42 -138t116 -48t119 48t45 138v600h387v-1108h-387v154q-136 -179 -332 -179z" />
    <glyph glyph-name="v" unicode="v" horiz-adv-x="1280" 
d="M463 -8l-443 1116h410l213 -647l215 647h402l-443 -1116h-354z" />
    <glyph glyph-name="w" unicode="w" horiz-adv-x="1763" 
d="M365 -8l-338 1116h379l145 -557l172 561h319l172 -565l150 561h375l-342 -1116h-336l-180 577l-185 -577h-331z" />
    <glyph glyph-name="x" unicode="x" horiz-adv-x="1206" 
d="M442 1108l164 -277l166 277h410l-365 -547l373 -561h-418l-172 289l-174 -289h-410l373 557l-364 551h417z" />
    <glyph glyph-name="y" unicode="y" horiz-adv-x="1282" 
d="M651 440l209 668h400l-406 -1081q-75 -200 -166.5 -280.5t-255.5 -80.5q-185 0 -354 96l119 273q97 -60 170 -60q57 0 92 45l-434 1088h405z" />
    <glyph glyph-name="z" unicode="z" horiz-adv-x="1153" 
d="M68 0v256l510 545h-492v307h1008v-254l-514 -545h514v-309h-1026z" />
    <glyph glyph-name="braceleft" unicode="{" horiz-adv-x="1003" 
d="M938 -61l-59 -228q-203 24 -322.5 75.5t-168 128t-48.5 191.5q0 15 3 74.5t3 77.5q0 113 -58.5 157t-185.5 44h-32v258h32q127 0 185.5 44t58.5 157q0 18 -3 77t-3 74q0 115 48.5 191.5t168 128t322.5 75.5l59 -227q-109 -24 -164 -54.5t-72.5 -69t-17.5 -105.5
q0 -16 3 -70t3 -76q0 -110 -57 -175.5t-172 -98.5q115 -31 172 -98t57 -177q0 -23 -3 -75t-3 -68q0 -68 17.5 -107t72.5 -69.5t164 -54.5z" />
    <glyph glyph-name="bar" unicode="|" horiz-adv-x="727" 
d="M215 -262v1896h297v-1896h-297z" />
    <glyph glyph-name="braceright" unicode="}" horiz-adv-x="1003" 
d="M127 -289l-61 228q109 24 164.5 54.5t73.5 69.5t18 107q0 16 -3.5 68t-3.5 75q0 110 57.5 176.5t170.5 98.5q-114 33 -171 99t-57 175q0 22 3.5 76t3.5 70q0 67 -18 105.5t-73.5 69t-164.5 54.5l61 227q202 -24 321.5 -75.5t168.5 -128t49 -191.5q0 -15 -3.5 -74
t-3.5 -77q0 -113 57.5 -157t184.5 -44h33v-258h-33q-127 0 -184.5 -44t-57.5 -157q0 -18 3.5 -77.5t3.5 -74.5q0 -115 -49 -191.5t-168.5 -128t-321.5 -75.5z" />
    <glyph glyph-name="asciitilde" unicode="~" horiz-adv-x="1034" 
d="M696 467q-89 0 -192 43q-88 37 -127 37q-41 0 -62 -21.5t-43 -74.5l-186 51q33 158 92 231.5t162 73.5q82 0 190 -45q10 -3 30.5 -10t30.5 -10.5t24 -7.5t24.5 -5.5t19.5 -1.5q40 0 61.5 21t43.5 73l186 -51q-36 -158 -94 -230.5t-160 -72.5z" />
    <glyph glyph-name="uni00A0" unicode="&#xa0;" horiz-adv-x="0" 
 />
    <glyph glyph-name="exclamdown" unicode="&#xa1;" horiz-adv-x="663" 
d="M131 1085v349h404v-349h-404zM111 0v174l120 793h203l119 -793v-174h-442z" />
    <glyph glyph-name="cent" unicode="&#xa2;" horiz-adv-x="1177" 
d="M907 1446l-30 -178q170 -61 260 -199l-240 -182q-50 53 -94 82l-92 -514q111 18 190 116l238 -174q-158 -234 -461 -243l-29 -166h-235l35 198q-172 62 -277.5 208t-105.5 331v4q0 158 72 287t205 206.5t304 82.5l25 141h235zM406 733v-4q0 -173 114 -244l92 521
q-92 -13 -149 -92t-57 -181z" />
    <glyph glyph-name="sterling" unicode="&#xa3;" horiz-adv-x="1308" 
d="M90 0v238l154 57v244h-154v280h154v103q0 254 141 395q138 141 393 141q297 0 475 -207l-239 -264q-100 117 -209 117q-72 0 -117 -45q-49 -49 -49 -137v-103h442v-280h-442v-224h600v-315h-1149z" />
    <glyph glyph-name="yen" unicode="&#xa5;" horiz-adv-x="1449" 
d="M154 539v245h280l-426 650h451l268 -471l274 471h441l-428 -650h284v-245h-376v-103h376v-246h-376v-190h-392v190h-376v246h376v103h-376z" />
    <glyph glyph-name="section" unicode="&#xa7;" horiz-adv-x="1282" 
d="M1010 510q96 -76 96 -201v-4q0 -143 -123 -237.5t-350 -94.5q-146 0 -274.5 45t-211.5 117l158 223q169 -120 336 -120q113 0 113 61v4q0 28 -45.5 49t-153.5 45q-85 18 -147.5 35.5t-126.5 43.5t-103.5 55.5t-64.5 71.5t-25 93v4q0 156 184 224q-96 78 -96 202v4
q0 144 123.5 237t349.5 93q148 0 276 -45t210 -117l-158 -221q-167 119 -336 119q-111 0 -111 -59v-4q0 -29 43.5 -49.5t155.5 -45.5q73 -17 124.5 -31t109.5 -33.5t96.5 -41.5t71.5 -50t49 -64t16 -79v-4q0 -158 -186 -225zM795 608q48 0 76 18.5t28 53.5v4
q0 33 -50.5 57.5t-156.5 49.5q-145 34 -203 34q-104 0 -104 -71v-4q0 -33 50 -56.5t157 -48.5q142 -37 203 -37z" />
    <glyph glyph-name="dieresis" unicode="&#xa8;" horiz-adv-x="1024" 
d="M561 1204v291h332v-291h-332zM133 1204v291h330v-291h-330z" />
    <glyph glyph-name="copyright" unicode="&#xa9;" horiz-adv-x="1699" 
d="M848 -29q-153 0 -290.5 60t-235.5 160.5t-155.5 237t-57.5 284.5v4q0 149 58 286t156.5 238t237 161t291.5 60t290.5 -59.5t235.5 -160t155.5 -237t57.5 -284.5v-4q0 -149 -58 -286t-156.5 -238.5t-237 -161.5t-291.5 -60zM848 55q138 0 260.5 53t209 142t137 211
t50.5 256v4q0 179 -85 330t-235.5 240t-332.5 89q-138 0 -260.5 -53t-209 -142.5t-137 -211.5t-50.5 -256v-4q0 -133 50 -254.5t136 -210t208 -141t259 -52.5zM860 319q-178 0 -294.5 115.5t-116.5 288.5v4q0 169 118 288.5t299 119.5q117 0 195.5 -41.5t136.5 -120.5
l-166 -129q-72 92 -170 92q-83 0 -134.5 -59.5t-51.5 -147.5v-4q0 -88 51.5 -146.5t134.5 -58.5q57 0 96.5 23.5t79.5 70.5l166 -118q-62 -85 -143 -131t-201 -46z" />
    <glyph glyph-name="ordfeminine" unicode="&#xaa;" horiz-adv-x="798" 
d="M295 815q-91 0 -148 48.5t-57 137.5v5q0 92 64.5 141t175.5 49q84 0 147 -25v9q0 100 -123 100q-89 0 -168 -33l-45 150q109 47 248 47q155 0 232 -74q65 -65 65 -194v-349h-211v66q-71 -78 -180 -78zM86 555v156h610v-156h-610zM371 948q48 0 78 27t30 74v26
q-49 17 -86 17q-45 0 -70.5 -19.5t-25.5 -54.5v-4q0 -30 20.5 -48t53.5 -18z" />
    <glyph glyph-name="guillemotleft" unicode="&#xab;" horiz-adv-x="1294" 
d="M979 68l-389 471v20l389 473l252 -125l-240 -356l240 -356zM418 68l-357 432v98l357 434l252 -125l-242 -356l242 -356z" />
    <glyph glyph-name="registered" unicode="&#xae;" horiz-adv-x="753" 
d="M377 737q-150 0 -253.5 105t-103.5 252v2q0 147 104.5 252.5t252.5 105.5q150 0 253 -104.5t103 -251.5v-2q0 -147 -104 -253t-252 -106zM377 776q132 0 223.5 94t91.5 226v2q0 131 -91 224t-224 93t-224.5 -94t-91.5 -225v-2q0 -131 91.5 -224.5t224.5 -93.5zM217 915
v377h182q76 0 120 -32.5t44 -96.5v-2q0 -90 -76 -117l88 -129h-133l-73 109h-35v-109h-117zM334 1112h59q53 0 53 41v2q0 18 -13.5 29t-37.5 10h-61v-82z" />
    <glyph glyph-name="macron" unicode="&#xaf;" horiz-adv-x="1024" 
d="M129 1219v233h768v-233h-768z" />
    <glyph glyph-name="degree" unicode="&#xb0;" horiz-adv-x="966" 
d="M483 721q-153 0 -262.5 106.5t-109.5 255.5v4q0 148 111.5 255.5t260.5 107.5t261 -107.5t112 -255.5v-4q0 -149 -110 -255.5t-263 -106.5zM483 909q73 0 122.5 50.5t49.5 123.5v4q0 70 -50.5 122.5t-121.5 52.5t-121.5 -52.5t-50.5 -122.5v-4q0 -73 49.5 -123.5
t122.5 -50.5z" />
    <glyph glyph-name="plusminus" unicode="&#xb1;" horiz-adv-x="1310" 
d="M1186 770l-369 2l2 -344h-327l2 344l-369 -2v309l369 -2l-2 344h327l-2 -344l369 2v-309zM1186 0h-1061v287h1061v-287z" />
    <glyph glyph-name="two.sup" unicode="&#xb2;" 
d="M92 854v178l299 234q56 43 78.5 73t22.5 66q0 35 -25 56.5t-64 21.5q-78 0 -167 -103l-148 129q65 84 142 127t188 43q136 0 218.5 -69t82.5 -180q0 -87 -39 -145.5t-131 -125.5l-158 -119h334v-186h-633z" />
    <glyph glyph-name="three.sup" unicode="&#xb3;" 
d="M403 831q-205 0 -342 130l123 147q101 -88 209 -88q48 0 78.5 23t30.5 63q0 84 -137 84h-97l-30 117l204 168h-323v184h588v-164l-215 -170q104 -13 167.5 -68t63.5 -155q0 -123 -89.5 -197t-230.5 -74z" />
    <glyph glyph-name="acute" unicode="&#xb4;" horiz-adv-x="1024" 
d="M270 1204l213 377l361 -117l-303 -260h-271z" />
    <glyph glyph-name="mu" unicode="&#xb5;" horiz-adv-x="1429" 
d="M1395 297v-281q-84 -32 -199 -32q-216 0 -287 153q-77 -147 -227 -147q-77 0 -140 36t-98 111h-6q17 -65 24.5 -96.5t14 -81t6.5 -102.5v-185h-379v1436h390v-608q0 -91 43.5 -140t119.5 -49q79 0 125.5 49t46.5 140v608h388v-717q4 -55 29.5 -77.5t80.5 -22.5q43 0 68 6
z" />
    <glyph glyph-name="paragraph" unicode="&#xb6;" horiz-adv-x="1220" 
d="M696 0v451h-43q-178 0 -313.5 55t-214 166t-78.5 266v4q0 233 162 362.5t436 129.5h449v-1434h-398z" />
    <glyph glyph-name="periodcentered" unicode="&#xb7;" horiz-adv-x="579" 
d="M88 440v400h404v-400h-404z" />
    <glyph glyph-name="cedilla" unicode="&#xb8;" horiz-adv-x="1024" 
d="M532 -354l-307 131l195 264h252z" />
    <glyph glyph-name="one.sup" unicode="&#xb9;" horiz-adv-x="665" 
d="M498 854h-226v600l-155 -49l-54 176l269 90h166v-817z" />
    <glyph glyph-name="ordmasculine" unicode="&#xba;" horiz-adv-x="798" 
d="M397 811q-141 0 -234 90.5t-93 222.5v4q0 132 95 224t236 92t235.5 -91t94.5 -223v-4q0 -131 -96 -223t-238 -92zM104 555v156h590v-156h-590zM401 991q56 0 89.5 37.5t33.5 95.5v4q0 58 -36 97t-91 39t-88 -38t-33 -96v-4q0 -58 35 -96.5t90 -38.5z" />
    <glyph glyph-name="guillemotright" unicode="&#xbb;" horiz-adv-x="1294" 
d="M877 68l-252 125l241 356l-241 356l252 127l356 -434v-98zM315 68l-252 125l240 356l-240 356l252 127l390 -473v-20z" />
    <glyph glyph-name="onequarter" unicode="&#xbc;" horiz-adv-x="1689" 
d="M496 629h-226v600l-155 -49l-54 176l269 90h166v-817zM248 0l524 750l449 684h170l-523 -750l-450 -684h-170zM1536 147v-151h-215v151h-365l-24 185l354 481h250v-502h98v-164h-98zM1327 307v285l-209 -285h209z" />
    <glyph glyph-name="onehalf" unicode="&#xbd;" horiz-adv-x="1689" 
d="M983 0v178l299 234q55 42 77.5 72.5t22.5 66.5q0 35 -24.5 56.5t-63.5 21.5q-79 0 -168 -103l-147 129q65 84 142 127t188 43q136 0 218.5 -69.5t82.5 -180.5q0 -87 -39 -145t-131 -125l-158 -119h334v-186h-633zM227 0l525 750l448 684h170l-522 -750l-451 -684h-170z
M496 629h-226v600l-155 -49l-54 176l269 90h166v-817z" />
    <glyph glyph-name="threequarters" unicode="&#xbe;" horiz-adv-x="1843" 
d="M1690 147v-151h-215v151h-365l-25 185l355 481h250v-502h98v-164h-98zM1481 307v285l-209 -285h209zM391 0l524 750l449 684h170l-522 -750l-451 -684h-170zM403 606q-207 0 -342 129l123 148q101 -88 209 -88q48 0 78.5 23t30.5 63q0 84 -137 84h-97l-30 116l204 168
h-323v185h588v-164l-215 -170q104 -13 167.5 -68t63.5 -155q0 -123 -89.5 -197t-230.5 -74z" />
    <glyph glyph-name="questiondown" unicode="&#xbf;" horiz-adv-x="1107" 
d="M397 1085v349h404v-349h-404zM557 -23q-229 0 -370.5 116.5t-141.5 314.5v4q0 93 29.5 166t85.5 122.5t125 82t159 53.5l25 131h246l53 -342l-18 -19q-172 -13 -247 -54t-75 -110v-2q0 -54 41 -83t115 -29q149 0 299 135l204 -270q-220 -216 -530 -216z" />
    <glyph glyph-name="Agrave" unicode="&#xc0;" horiz-adv-x="1628" 
d="M14 0l609 1444h383l610 -1444h-426l-103 258h-555l-102 -258h-416zM649 567h322l-160 406zM969 1552h-291l-303 220l370 112z" />
    <glyph glyph-name="Aacute" unicode="&#xc1;" horiz-adv-x="1628" 
d="M14 0l609 1444h383l610 -1444h-426l-103 258h-555l-102 -258h-416zM649 567h322l-160 406zM662 1552l221 332l370 -112l-303 -220h-288z" />
    <glyph glyph-name="Acircumflex" unicode="&#xc2;" horiz-adv-x="1628" 
d="M14 0l609 1444h383l610 -1444h-426l-103 258h-555l-102 -258h-416zM649 567h322l-160 406zM389 1546l252 305h346l252 -305h-266l-162 109l-162 -109h-260z" />
    <glyph glyph-name="Atilde" unicode="&#xc3;" horiz-adv-x="1628" 
d="M14 0l609 1444h383l610 -1444h-426l-103 258h-555l-102 -258h-416zM649 567h322l-160 406zM1010 1552q-76 0 -209 45q-10 3 -30.5 10t-30.5 10.5t-24 7.5t-24.5 5.5t-19.5 1.5q-41 0 -64.5 -22t-44.5 -74l-186 51q36 158 95.5 231.5t162.5 73.5q72 0 207 -47
q101 -33 131 -33q40 0 62 21.5t44 73.5l187 -52q-33 -156 -93 -229.5t-163 -73.5z" />
    <glyph glyph-name="Adieresis" unicode="&#xc4;" horiz-adv-x="1628" 
d="M14 0l609 1444h383l610 -1444h-426l-103 258h-555l-102 -258h-416zM649 567h322l-160 406zM870 1552v283h338v-283h-338zM418 1552v283h338v-283h-338z" />
    <glyph glyph-name="Aring" unicode="&#xc5;" horiz-adv-x="1628" 
d="M14 0l572 1358q-60 66 -60 160q0 109 84 182.5t205 73.5t205 -73.5t84 -182.5q0 -94 -62 -162l574 -1356h-426l-103 258h-555l-102 -258h-416zM649 567h322l-160 406zM815 1384q65 0 106.5 38t41.5 96q0 56 -41.5 94.5t-106.5 38.5t-106 -38t-41 -95q0 -58 41 -96
t106 -38z" />
    <glyph glyph-name="AE" unicode="&#xc6;" horiz-adv-x="2177" 
d="M-10 0l758 1434h1341v-336h-715v-219h643v-314h-643v-227h725v-338h-1112v258h-463l-133 -258h-401zM684 567h303v541h-24z" />
    <glyph glyph-name="Ccedilla" unicode="&#xc7;" horiz-adv-x="1497" 
d="M778 -354l-307 131l160 217q-243 63 -397 258t-154 461v4q0 155 57.5 292.5t156.5 237t239.5 157.5t300.5 58q395 0 608 -297l-299 -231q-67 82 -141.5 125t-172.5 43q-148 0 -245 -111t-97 -270v-4q0 -163 96.5 -273t245.5 -110q105 0 177.5 43.5t146.5 130.5l299 -213
q-101 -139 -235 -221.5t-324 -98.5z" />
    <glyph glyph-name="Egrave" unicode="&#xc8;" horiz-adv-x="1368" 
d="M862 1532h-291l-303 219l371 113zM127 0v1434h1153v-336h-760v-219h688v-314h-688v-227h770v-338h-1163z" />
    <glyph glyph-name="Eacute" unicode="&#xc9;" horiz-adv-x="1368" 
d="M555 1532l221 332l371 -113l-303 -219h-289zM127 0v1434h1153v-336h-760v-219h688v-314h-688v-227h770v-338h-1163z" />
    <glyph glyph-name="Ecircumflex" unicode="&#xca;" horiz-adv-x="1368" 
d="M127 0v1434h1153v-336h-760v-219h688v-314h-688v-227h770v-338h-1163zM283 1532l252 305h346l252 -305h-267l-161 108l-162 -108h-260z" />
    <glyph glyph-name="Edieresis" unicode="&#xcb;" horiz-adv-x="1368" 
d="M764 1532v283h338v-283h-338zM311 1532v283h338v-283h-338zM127 0v1434h1153v-336h-760v-219h688v-314h-688v-227h770v-338h-1163z" />
    <glyph glyph-name="Igrave" unicode="&#xcc;" horiz-adv-x="669" 
d="M137 0v1434h398v-1434h-398zM492 1532h-291l-303 219l370 113z" />
    <glyph glyph-name="Iacute" unicode="&#xcd;" horiz-adv-x="669" 
d="M137 0v1434h398v-1434h-398zM184 1532l222 332l370 -113l-303 -219h-289z" />
    <glyph glyph-name="Icircumflex" unicode="&#xce;" horiz-adv-x="669" 
d="M137 0v1434h398v-1434h-398zM-86 1532l252 305h346l252 -305h-266l-162 108l-162 -108h-260z" />
    <glyph glyph-name="Idieresis" unicode="&#xcf;" horiz-adv-x="669" 
d="M137 0v1434h398v-1434h-398zM395 1532v283h338v-283h-338zM-57 1532v283h338v-283h-338z" />
    <glyph glyph-name="Eth" unicode="&#xd0;" horiz-adv-x="1669" 
d="M63 588v268h164v578h555q188 0 340.5 -52.5t254.5 -146t157 -224t55 -286.5v-4q0 -156 -55.5 -288t-158.5 -228.5t-257.5 -150.5t-343.5 -54h-547v588h-164zM1184 715v4q0 177 -106 276t-292 99h-172v-242h267v-260h-267v-250h172q186 0 292 98t106 275z" />
    <glyph glyph-name="Ntilde" unicode="&#xd1;" horiz-adv-x="1607" 
d="M999 1532q-75 0 -208 45q-10 3 -30.5 10t-30.5 10.5t-24 7.5t-24.5 5.5t-19.5 1.5q-41 0 -64.5 -22t-44.5 -74l-186 51q36 158 95.5 231.5t162.5 73.5q71 0 206 -47q101 -33 132 -33q40 0 62 21.5t44 72.5l186 -51q-33 -156 -93 -229.5t-163 -73.5zM127 0v1434h371
l589 -758v758h394v-1434h-346l-615 786v-786h-393z" />
    <glyph glyph-name="Ograve" unicode="&#xd2;" horiz-adv-x="1701" 
d="M1006 1552h-291l-303 220l370 112zM850 -29q-163 0 -306.5 58.5t-245 158.5t-160 236.5t-58.5 288.5v4q0 152 59.5 289.5t161.5 237.5t246 159t307 59q217 0 394 -99.5t276.5 -269t99.5 -372.5v-4q0 -152 -59.5 -290t-161.5 -238t-246 -159t-307 -59zM854 330
q159 0 261 112t102 271v4q0 161 -103 274t-264 113t-263 -112t-102 -271v-4q0 -158 104.5 -272.5t264.5 -114.5z" />
    <glyph glyph-name="Oacute" unicode="&#xd3;" horiz-adv-x="1701" 
d="M698 1552l222 332l370 -112l-303 -220h-289zM850 -29q-163 0 -306.5 58.5t-245 158.5t-160 236.5t-58.5 288.5v4q0 152 59.5 289.5t161.5 237.5t246 159t307 59q217 0 394 -99.5t276.5 -269t99.5 -372.5v-4q0 -152 -59.5 -290t-161.5 -238t-246 -159t-307 -59zM854 330
q159 0 261 112t102 271v4q0 161 -103 274t-264 113t-263 -112t-102 -271v-4q0 -158 104.5 -272.5t264.5 -114.5z" />
    <glyph glyph-name="Ocircumflex" unicode="&#xd4;" horiz-adv-x="1701" 
d="M850 -29q-163 0 -306.5 58.5t-245 158.5t-160 236.5t-58.5 288.5v4q0 152 59.5 289.5t161.5 237.5t246 159t307 59q217 0 394 -99.5t276.5 -269t99.5 -372.5v-4q0 -152 -59.5 -290t-161.5 -238t-246 -159t-307 -59zM854 330q159 0 261 112t102 271v4q0 161 -103 274
t-264 113t-263 -112t-102 -271v-4q0 -158 104.5 -272.5t264.5 -114.5zM426 1552l252 306h346l252 -306h-266l-162 109l-162 -109h-260z" />
    <glyph glyph-name="Otilde" unicode="&#xd5;" horiz-adv-x="1701" 
d="M1047 1552q-76 0 -209 45q-10 3 -30.5 10t-30.5 10.5t-24 7.5t-24.5 5.5t-19.5 1.5q-41 0 -64.5 -22t-44.5 -74l-186 51q36 158 95.5 231.5t162.5 73.5q72 0 207 -47q101 -33 131 -33q40 0 62 21.5t44 73.5l187 -52q-33 -156 -93 -229.5t-163 -73.5zM850 -29
q-163 0 -306.5 58.5t-245 158.5t-160 236.5t-58.5 288.5v4q0 152 59.5 289.5t161.5 237.5t246 159t307 59q217 0 394 -99.5t276.5 -269t99.5 -372.5v-4q0 -152 -59.5 -290t-161.5 -238t-246 -159t-307 -59zM854 330q159 0 261 112t102 271v4q0 161 -103 274t-264 113
t-263 -112t-102 -271v-4q0 -158 104.5 -272.5t264.5 -114.5z" />
    <glyph glyph-name="Odieresis" unicode="&#xd6;" horiz-adv-x="1701" 
d="M907 1552v283h338v-283h-338zM455 1552v283h338v-283h-338zM850 -29q-163 0 -306.5 58.5t-245 158.5t-160 236.5t-58.5 288.5v4q0 152 59.5 289.5t161.5 237.5t246 159t307 59q217 0 394 -99.5t276.5 -269t99.5 -372.5v-4q0 -152 -59.5 -290t-161.5 -238t-246 -159
t-307 -59zM854 330q159 0 261 112t102 271v4q0 161 -103 274t-264 113t-263 -112t-102 -271v-4q0 -158 104.5 -272.5t264.5 -114.5z" />
    <glyph glyph-name="multiply" unicode="&#xd7;" horiz-adv-x="1310" 
d="M958 182l-305 314l-305 -314l-231 232l313 305l-315 305l237 238l307 -314l306 314l231 -232l-313 -305l313 -305z" />
    <glyph glyph-name="Oslash" unicode="&#xd8;" horiz-adv-x="1701" 
d="M1339 1444h301l-204 -232q188 -204 188 -491v-4q0 -152 -59.5 -290t-161.5 -238t-246 -159t-307 -59q-225 0 -406 107l-79 -88h-302l203 231q-186 201 -186 492v4q0 152 59.5 289.5t161.5 237.5t246 159t307 59q224 0 406 -106zM854 322q162 0 266.5 114.5t104.5 276.5v4
q0 112 -51 201l-488 -558q66 -38 168 -38zM479 721v-4q0 -111 49 -199l488 555q-74 39 -166 39q-163 0 -267 -114t-104 -277z" />
    <glyph glyph-name="Ugrave" unicode="&#xd9;" horiz-adv-x="1552" 
d="M930 1532h-291l-303 219l371 113zM772 -27q-154 0 -275 39.5t-207.5 119t-132.5 205t-46 292.5v805h401v-797q0 -152 69.5 -228.5t194.5 -76.5q127 0 196.5 73.5t69.5 221.5v807h402v-795q0 -170 -47.5 -298t-136 -208.5t-211 -120t-277.5 -39.5z" />
    <glyph glyph-name="Uacute" unicode="&#xda;" horiz-adv-x="1552" 
d="M623 1532l221 332l370 -113l-303 -219h-288zM772 -27q-154 0 -275 39.5t-207.5 119t-132.5 205t-46 292.5v805h401v-797q0 -152 69.5 -228.5t194.5 -76.5q127 0 196.5 73.5t69.5 221.5v807h402v-795q0 -170 -47.5 -298t-136 -208.5t-211 -120t-277.5 -39.5z" />
    <glyph glyph-name="Ucircumflex" unicode="&#xdb;" horiz-adv-x="1552" 
d="M772 -27q-154 0 -275 39.5t-207.5 119t-132.5 205t-46 292.5v805h401v-797q0 -152 69.5 -228.5t194.5 -76.5q127 0 196.5 73.5t69.5 221.5v807h402v-795q0 -170 -47.5 -298t-136 -208.5t-211 -120t-277.5 -39.5zM352 1532l252 305h346l252 -305h-266l-162 108l-162 -108
h-260z" />
    <glyph glyph-name="Udieresis" unicode="&#xdc;" horiz-adv-x="1552" 
d="M834 1532v283h337v-283h-337zM381 1532v283h338v-283h-338zM772 -27q-154 0 -275 39.5t-207.5 119t-132.5 205t-46 292.5v805h401v-797q0 -152 69.5 -228.5t194.5 -76.5q127 0 196.5 73.5t69.5 221.5v807h402v-795q0 -170 -47.5 -298t-136 -208.5t-211 -120t-277.5 -39.5
z" />
    <glyph glyph-name="Yacute" unicode="&#xdd;" horiz-adv-x="1480" 
d="M543 0v537l-547 897h453l294 -523l297 523h445l-545 -891v-543h-397zM588 1532l221 332l371 -113l-303 -219h-289z" />
    <glyph glyph-name="Thorn" unicode="&#xde;" horiz-adv-x="1378" 
d="M127 0v1434h397v-205h219q274 0 434 -131t160 -367v-4q0 -164 -80.5 -281t-217.5 -174t-316 -57h-199v-215h-397zM524 532h191q104 0 165.5 50.5t61.5 136.5v4q0 91 -61 139.5t-168 48.5h-189v-379z" />
    <glyph glyph-name="germandbls" unicode="&#xdf;" horiz-adv-x="1300" 
d="M629 -6v278q110 6 170.5 49.5t60.5 116.5v4q0 71 -61.5 113t-169.5 53v207q168 88 168 221v4q0 67 -40 108.5t-102 41.5q-74 0 -118.5 -52t-44.5 -147v-991h-388v981q0 246 145.5 389t412.5 143q234 0 373 -121.5t139 -304.5v-4q0 -120 -58.5 -203.5t-154.5 -131.5
q55 -17 103 -45.5t90 -70.5t66.5 -102t24.5 -131v-4q0 -133 -79.5 -228.5t-218.5 -139.5t-318 -33z" />
    <glyph glyph-name="agrave" unicode="&#xe0;" horiz-adv-x="1226" 
d="M422 -25q-163 0 -267 91t-104 251v5q0 169 117 258.5t317 89.5q159 0 267 -43v18q0 182 -222 182q-151 0 -307 -61l-80 272q211 86 449 86q287 0 422 -135q119 -116 119 -352v-637h-383v117q-135 -142 -328 -142zM561 219q87 0 141 49t54 133v52q-72 28 -154 28
q-85 0 -131.5 -36.5t-46.5 -100.5v-4q0 -56 38 -88.5t99 -32.5zM500 1212l-301 261l360 116l211 -377h-270z" />
    <glyph glyph-name="aacute" unicode="&#xe1;" horiz-adv-x="1226" 
d="M422 -25q-163 0 -267 91t-104 251v5q0 169 117 258.5t317 89.5q159 0 267 -43v18q0 182 -222 182q-151 0 -307 -61l-80 272q211 86 449 86q287 0 422 -135q119 -116 119 -352v-637h-383v117q-135 -142 -328 -142zM561 219q87 0 141 49t54 133v52q-72 28 -154 28
q-85 0 -131.5 -36.5t-46.5 -100.5v-4q0 -56 38 -88.5t99 -32.5zM473 1212l213 377l361 -116l-304 -261h-270z" />
    <glyph glyph-name="acircumflex" unicode="&#xe2;" horiz-adv-x="1226" 
d="M422 -25q-163 0 -267 91t-104 251v5q0 169 117 258.5t317 89.5q159 0 267 -43v18q0 182 -222 182q-151 0 -307 -61l-80 272q211 86 449 86q287 0 422 -135q119 -116 119 -352v-637h-383v117q-135 -142 -328 -142zM561 219q87 0 141 49t54 133v52q-72 28 -154 28
q-85 0 -131.5 -36.5t-46.5 -100.5v-4q0 -56 38 -88.5t99 -32.5zM201 1212l262 336h315l262 -336h-249l-173 125l-172 -125h-245z" />
    <glyph glyph-name="atilde" unicode="&#xe3;" horiz-adv-x="1226" 
d="M422 -25q-163 0 -267 91t-104 251v5q0 169 117 258.5t317 89.5q159 0 267 -43v18q0 182 -222 182q-151 0 -307 -61l-80 272q211 86 449 86q287 0 422 -135q119 -116 119 -352v-637h-383v117q-135 -142 -328 -142zM561 219q87 0 141 49t54 133v52q-72 28 -154 28
q-85 0 -131.5 -36.5t-46.5 -100.5v-4q0 -56 38 -88.5t99 -32.5zM807 1212q-88 0 -191 43q-88 37 -129 37q-40 0 -61 -21t-43 -75l-186 51q36 159 94.5 232t159.5 73q84 0 192 -45q104 -34 127 -34q40 0 61 21t43 73l187 -51q-33 -158 -92 -231t-162 -73z" />
    <glyph glyph-name="adieresis" unicode="&#xe4;" horiz-adv-x="1226" 
d="M422 -25q-163 0 -267 91t-104 251v5q0 169 117 258.5t317 89.5q159 0 267 -43v18q0 182 -222 182q-151 0 -307 -61l-80 272q211 86 449 86q287 0 422 -135q119 -116 119 -352v-637h-383v117q-135 -142 -328 -142zM561 219q87 0 141 49t54 133v52q-72 28 -154 28
q-85 0 -131.5 -36.5t-46.5 -100.5v-4q0 -56 38 -88.5t99 -32.5zM670 1212v291h331v-291h-331zM242 1212v291h329v-291h-329z" />
    <glyph glyph-name="aring" unicode="&#xe5;" horiz-adv-x="1226" 
d="M422 -25q-163 0 -267 91t-104 251v5q0 169 117 258.5t317 89.5q159 0 267 -43v18q0 182 -222 182q-151 0 -307 -61l-80 272q211 86 449 86q287 0 422 -135q119 -116 119 -352v-637h-383v117q-135 -142 -328 -142zM561 219q87 0 141 49t54 133v52q-72 28 -154 28
q-85 0 -131.5 -36.5t-46.5 -100.5v-4q0 -56 38 -88.5t99 -32.5zM621 1214q-111 0 -191 76.5t-80 184.5t80 184t191 76q114 0 193 -75.5t79 -184.5t-79 -185t-193 -76zM621 1333q60 0 100.5 41t40.5 101t-40.5 101.5t-100.5 41.5t-100 -41.5t-40 -101.5t40 -101t100 -41z" />
    <glyph glyph-name="ae" unicode="&#xe6;" horiz-adv-x="1925" 
d="M461 -25q-114 0 -205.5 37.5t-148 116.5t-56.5 188v5q0 169 117 258.5t317 89.5q159 0 267 -43v18q0 182 -222 182q-151 0 -307 -61l-80 272q211 86 449 86q250 0 375 -125q144 134 348 134q134 0 240.5 -48.5t173 -133t101 -193t34.5 -232.5q0 -26 -4 -80h-742
q49 -182 240 -182q72 0 130 26.5t118 86.5l213 -178q-175 -226 -480 -226q-132 0 -243.5 44t-190.5 124q-222 -166 -444 -166zM1114 645h385q-11 93 -62 147t-130 54q-77 0 -128 -54t-65 -147zM567 223q108 0 224 90q-29 68 -37 140q-72 28 -152 28q-85 0 -131.5 -36.5
t-46.5 -100.5v-4q0 -54 40 -85.5t103 -31.5z" />
    <glyph glyph-name="ccedilla" unicode="&#xe7;" horiz-adv-x="1165" 
d="M598 -354l-307 131l166 225q-178 57 -287 207.5t-109 339.5v4q0 156 74 287.5t210.5 210.5t307.5 79q313 0 473 -245l-262 -197q-44 58 -93 87.5t-114 29.5q-94 0 -156.5 -72t-62.5 -176v-4q0 -107 62 -179.5t159 -72.5q68 0 116.5 28.5t96.5 86.5l261 -189
q-152 -226 -418 -250z" />
    <glyph glyph-name="egrave" unicode="&#xe8;" horiz-adv-x="1241" 
d="M655 -27q-262 0 -428 160t-166 416v4q0 160 71 292.5t199.5 210t289.5 77.5q111 0 203.5 -32t157.5 -88t109.5 -132.5t65.5 -166t21 -188.5q0 -53 -2 -80h-742q46 -182 240 -182q72 0 129 26.5t117 86.5l215 -178q-175 -226 -480 -226zM428 645h387q-11 93 -63 147
t-131 54q-76 0 -125.5 -53.5t-67.5 -147.5zM502 1212l-301 261l360 116l211 -377h-270z" />
    <glyph glyph-name="eacute" unicode="&#xe9;" horiz-adv-x="1241" 
d="M475 1212l213 377l361 -116l-304 -261h-270zM655 -27q-262 0 -428 160t-166 416v4q0 160 71 292.5t199.5 210t289.5 77.5q111 0 203.5 -32t157.5 -88t109.5 -132.5t65.5 -166t21 -188.5q0 -53 -2 -80h-742q46 -182 240 -182q72 0 129 26.5t117 86.5l215 -178
q-175 -226 -480 -226zM428 645h387q-11 93 -63 147t-131 54q-76 0 -125.5 -53.5t-67.5 -147.5z" />
    <glyph glyph-name="ecircumflex" unicode="&#xea;" horiz-adv-x="1241" 
d="M203 1212l262 336h315l262 -336h-249l-172 125l-172 -125h-246zM655 -27q-262 0 -428 160t-166 416v4q0 160 71 292.5t199.5 210t289.5 77.5q111 0 203.5 -32t157.5 -88t109.5 -132.5t65.5 -166t21 -188.5q0 -53 -2 -80h-742q46 -182 240 -182q72 0 129 26.5t117 86.5
l215 -178q-175 -226 -480 -226zM428 645h387q-11 93 -63 147t-131 54q-76 0 -125.5 -53.5t-67.5 -147.5z" />
    <glyph glyph-name="edieresis" unicode="&#xeb;" horiz-adv-x="1241" 
d="M672 1212v291h332v-291h-332zM244 1212v291h329v-291h-329zM655 -27q-262 0 -428 160t-166 416v4q0 160 71 292.5t199.5 210t289.5 77.5q111 0 203.5 -32t157.5 -88t109.5 -132.5t65.5 -166t21 -188.5q0 -53 -2 -80h-742q46 -182 240 -182q72 0 129 26.5t117 86.5
l215 -178q-175 -226 -480 -226zM428 645h387q-11 93 -63 147t-131 54q-76 0 -125.5 -53.5t-67.5 -147.5z" />
    <glyph glyph-name="igrave" unicode="&#xec;" horiz-adv-x="616" 
d="M115 0v1108h387v-1108h-387zM188 1204l-301 260l361 117l211 -377h-271z" />
    <glyph glyph-name="iacute" unicode="&#xed;" horiz-adv-x="616" 
d="M162 1204l213 377l360 -117l-303 -260h-270zM115 0v1108h387v-1108h-387z" />
    <glyph glyph-name="icircumflex" unicode="&#xee;" horiz-adv-x="616" 
d="M-111 1204l263 336h315l262 -336h-250l-172 125l-172 -125h-246zM115 0v1108h387v-1108h-387z" />
    <glyph glyph-name="idieresis" unicode="&#xef;" horiz-adv-x="616" 
d="M358 1204v291h332v-291h-332zM-70 1204v291h330v-291h-330zM115 0v1108h387v-1108h-387z" />
    <glyph glyph-name="eth" unicode="&#xf0;" horiz-adv-x="1345" 
d="M1128 1331l-131 -31q285 -309 285 -673v-4q0 -185 -74 -332.5t-214 -232.5t-324 -85q-266 0 -437.5 168t-171.5 430v4q0 232 133.5 381.5t337.5 149.5q79 0 135.5 -18t123.5 -58q-64 97 -156 189l-246 -58l-59 170l143 33q-79 63 -182 131h489l62 -49l229 53zM674 303
q103 0 168 71t65 173v4q0 106 -67 178t-170 72t-167.5 -71t-64.5 -175v-4q0 -104 67 -176t169 -72z" />
    <glyph glyph-name="ntilde" unicode="&#xf1;" horiz-adv-x="1298" 
d="M104 0v1108h390v-156q142 181 331 181q178 0 277.5 -108.5t99.5 -299.5v-725h-387v600q0 91 -42.5 139.5t-115.5 48.5q-74 0 -118.5 -49t-44.5 -139v-600h-390zM838 1212q-88 0 -191 43q-88 37 -129 37q-40 0 -61 -21t-43 -75l-187 51q36 159 94.5 232t159.5 73
q85 0 193 -45q104 -34 127 -34q40 0 61 21t43 73l187 -51q-33 -158 -92 -231t-162 -73z" />
    <glyph glyph-name="ograve" unicode="&#xf2;" horiz-adv-x="1343" 
d="M670 -27q-129 0 -243 45.5t-194 123t-126 183.5t-46 224v4q0 118 46.5 224.5t127 184.5t195 124.5t244.5 46.5q173 0 313.5 -78t218.5 -210t78 -288v-4q0 -157 -79 -290t-220.5 -211.5t-314.5 -78.5zM674 303q103 0 168 71.5t65 174.5v4q0 105 -67 178.5t-170 73.5
q-104 0 -168 -71.5t-64 -176.5v-4q0 -103 67.5 -176.5t168.5 -73.5zM549 1212l-301 261l360 116l211 -377h-270z" />
    <glyph glyph-name="oacute" unicode="&#xf3;" horiz-adv-x="1343" 
d="M522 1212l213 377l361 -116l-303 -261h-271zM670 -27q-129 0 -243 45.5t-194 123t-126 183.5t-46 224v4q0 118 46.5 224.5t127 184.5t195 124.5t244.5 46.5q173 0 313.5 -78t218.5 -210t78 -288v-4q0 -157 -79 -290t-220.5 -211.5t-314.5 -78.5zM674 303q103 0 168 71.5
t65 174.5v4q0 105 -67 178.5t-170 73.5q-104 0 -168 -71.5t-64 -176.5v-4q0 -103 67.5 -176.5t168.5 -73.5z" />
    <glyph glyph-name="ocircumflex" unicode="&#xf4;" horiz-adv-x="1343" 
d="M252 1212l262 336h315l263 -336h-250l-172 125l-172 -125h-246zM670 -27q-129 0 -243 45.5t-194 123t-126 183.5t-46 224v4q0 118 46.5 224.5t127 184.5t195 124.5t244.5 46.5q173 0 313.5 -78t218.5 -210t78 -288v-4q0 -157 -79 -290t-220.5 -211.5t-314.5 -78.5z
M674 303q103 0 168 71.5t65 174.5v4q0 105 -67 178.5t-170 73.5q-104 0 -168 -71.5t-64 -176.5v-4q0 -103 67.5 -176.5t168.5 -73.5z" />
    <glyph glyph-name="otilde" unicode="&#xf5;" horiz-adv-x="1343" 
d="M670 -27q-129 0 -243 45.5t-194 123t-126 183.5t-46 224v4q0 118 46.5 224.5t127 184.5t195 124.5t244.5 46.5q173 0 313.5 -78t218.5 -210t78 -288v-4q0 -157 -79 -290t-220.5 -211.5t-314.5 -78.5zM674 303q103 0 168 71.5t65 174.5v4q0 105 -67 178.5t-170 73.5
q-104 0 -168 -71.5t-64 -176.5v-4q0 -103 67.5 -176.5t168.5 -73.5zM856 1212q-87 0 -190 43q-88 37 -129 37t-62 -21.5t-43 -74.5l-186 51q36 159 94.5 232t159.5 73q84 0 192 -45q104 -34 127 -34q40 0 61.5 21t43.5 73l186 -51q-33 -158 -92 -231t-162 -73z" />
    <glyph glyph-name="odieresis" unicode="&#xf6;" horiz-adv-x="1343" 
d="M721 1212v291h332v-291h-332zM293 1212v291h330v-291h-330zM670 -27q-129 0 -243 45.5t-194 123t-126 183.5t-46 224v4q0 118 46.5 224.5t127 184.5t195 124.5t244.5 46.5q173 0 313.5 -78t218.5 -210t78 -288v-4q0 -157 -79 -290t-220.5 -211.5t-314.5 -78.5zM674 303
q103 0 168 71.5t65 174.5v4q0 105 -67 178.5t-170 73.5q-104 0 -168 -71.5t-64 -176.5v-4q0 -103 67.5 -176.5t168.5 -73.5z" />
    <glyph glyph-name="divide" unicode="&#xf7;" horiz-adv-x="1310" 
d="M473 1008v329h365v-329h-365zM1194 565h-1077v312h1077v-312zM473 104v330h365v-330h-365z" />
    <glyph glyph-name="oslash" unicode="&#xf8;" horiz-adv-x="1343" 
d="M1042 1118h273l-172 -190q141 -160 141 -371v-4q0 -157 -79 -290t-220.5 -211.5t-314.5 -78.5q-168 0 -310 76l-57 -59h-272l170 186q-140 159 -140 373v4q0 118 46.5 224.5t127 184.5t195 124.5t244.5 46.5q168 0 311 -78zM422 557v-4q0 -67 20 -111l322 359
q-43 18 -94 18q-110 0 -179 -76t-69 -186zM674 287q111 0 179.5 77t68.5 185v4q0 57 -21 106l-319 -358q38 -14 92 -14z" />
    <glyph glyph-name="ugrave" unicode="&#xf9;" horiz-adv-x="1298" 
d="M475 -25q-178 0 -278.5 109.5t-100.5 300.5v723h389v-600q0 -90 42 -138t116 -48t119 48t45 138v600h387v-1108h-387v154q-136 -179 -332 -179zM522 1204l-301 260l361 117l211 -377h-271z" />
    <glyph glyph-name="uacute" unicode="&#xfa;" horiz-adv-x="1298" 
d="M496 1204l213 377l360 -117l-303 -260h-270zM475 -25q-178 0 -278.5 109.5t-100.5 300.5v723h389v-600q0 -90 42 -138t116 -48t119 48t45 138v600h387v-1108h-387v154q-136 -179 -332 -179z" />
    <glyph glyph-name="ucircumflex" unicode="&#xfb;" horiz-adv-x="1298" 
d="M223 1204l262 336h316l262 -336h-250l-172 125l-172 -125h-246zM475 -25q-178 0 -278.5 109.5t-100.5 300.5v723h389v-600q0 -90 42 -138t116 -48t119 48t45 138v600h387v-1108h-387v154q-136 -179 -332 -179z" />
    <glyph glyph-name="udieresis" unicode="&#xfc;" horiz-adv-x="1298" 
d="M692 1204v291h332v-291h-332zM264 1204v291h330v-291h-330zM475 -25q-178 0 -278.5 109.5t-100.5 300.5v723h389v-600q0 -90 42 -138t116 -48t119 48t45 138v600h387v-1108h-387v154q-136 -179 -332 -179z" />
    <glyph glyph-name="yacute" unicode="&#xfd;" horiz-adv-x="1282" 
d="M651 440l209 668h400l-406 -1081q-75 -200 -166.5 -280.5t-255.5 -80.5q-185 0 -354 96l119 273q97 -60 170 -60q57 0 92 45l-434 1088h405zM498 1204l213 377l360 -117l-303 -260h-270z" />
    <glyph glyph-name="thorn" unicode="&#xfe;" horiz-adv-x="1384" 
d="M104 -328v1823h390v-534q67 81 144 126.5t191 45.5q98 0 187.5 -40.5t157 -113t107.5 -182t40 -238.5v-4q0 -131 -39.5 -241.5t-107 -184t-156.5 -114t-187 -40.5q-115 0 -193 42.5t-144 117.5v-463h-390zM713 301q94 0 160.5 71t66.5 181v4q0 108 -66.5 180t-160.5 72
q-96 0 -162 -71.5t-66 -180.5v-4q0 -109 66 -180.5t162 -71.5z" />
    <glyph glyph-name="ydieresis" unicode="&#xff;" horiz-adv-x="1282" 
d="M651 440l209 668h400l-406 -1081q-75 -200 -166.5 -280.5t-255.5 -80.5q-185 0 -354 96l119 273q97 -60 170 -60q57 0 92 45l-434 1088h405zM696 1204v291h332v-291h-332zM268 1204v291h330v-291h-330z" />
    <glyph glyph-name="Amacron" unicode="&#x100;" horiz-adv-x="1628" 
d="M14 0l609 1444h383l610 -1444h-426l-103 258h-555l-102 -258h-416zM649 567h322l-160 406zM406 1567v239h815v-239h-815z" />
    <glyph glyph-name="amacron" unicode="&#x101;" horiz-adv-x="1226" 
d="M422 -25q-163 0 -267 91t-104 251v5q0 169 117 258.5t317 89.5q159 0 267 -43v18q0 182 -222 182q-151 0 -307 -61l-80 272q211 86 449 86q287 0 422 -135q119 -116 119 -352v-637h-383v117q-135 -142 -328 -142zM561 219q87 0 141 49t54 133v52q-72 28 -154 28
q-85 0 -131.5 -36.5t-46.5 -100.5v-4q0 -56 38 -88.5t99 -32.5zM238 1227v233h768v-233h-768z" />
    <glyph glyph-name="Abreve" unicode="&#x102;" horiz-adv-x="1628" 
d="M14 0l609 1444h383l610 -1444h-426l-103 258h-555l-102 -258h-416zM649 567h322l-160 406zM815 1548q-173 0 -278 79t-125 231h235q39 -93 168 -93q69 0 109 23.5t61 69.5h234q-20 -152 -125 -231t-279 -79z" />
    <glyph glyph-name="abreve" unicode="&#x103;" horiz-adv-x="1226" 
d="M422 -25q-163 0 -267 91t-104 251v5q0 169 117 258.5t317 89.5q159 0 267 -43v18q0 182 -222 182q-151 0 -307 -61l-80 272q211 86 449 86q287 0 422 -135q119 -116 119 -352v-637h-383v117q-135 -142 -328 -142zM561 219q87 0 141 49t54 133v52q-72 28 -154 28
q-85 0 -131.5 -36.5t-46.5 -100.5v-4q0 -56 38 -88.5t99 -32.5zM621 1208q-173 0 -280 88.5t-124 251.5h227q20 -58 61.5 -88t115.5 -30t115 30t61 88h227q-13 -162 -121 -251t-282 -89z" />
    <glyph glyph-name="Aogonek" unicode="&#x104;" horiz-adv-x="1628" 
d="M1628 -170v-166q-57 -8 -121 -8q-145 0 -228 49t-83 129q0 84 82 166h-88l-103 258h-555l-102 -258h-416l609 1444h383l610 -1444h-90q-45 -51 -45 -96q0 -42 35 -60t112 -14zM649 567h322l-160 406z" />
    <glyph glyph-name="aogonek" unicode="&#x105;" horiz-adv-x="1226" 
d="M1143 -170v-166q-57 -8 -121 -8q-145 0 -228 49t-83 129q0 84 82 166h-43v117q-135 -142 -328 -142q-163 0 -267 91t-104 251v5q0 169 117 258.5t317 89.5q159 0 267 -43v18q0 182 -222 182q-151 0 -307 -61l-80 272q211 86 449 86q287 0 422 -135q119 -116 119 -352
v-637h-93q-45 -51 -45 -96q0 -83 148 -74zM561 219q87 0 141 49t54 133v52q-72 28 -154 28q-85 0 -131.5 -36.5t-46.5 -100.5v-4q0 -56 38 -88.5t99 -32.5z" />
    <glyph glyph-name="Cacute" unicode="&#x106;" horiz-adv-x="1497" 
d="M819 -29q-203 0 -372 95.5t-268 266t-99 380.5v4q0 155 57.5 292.5t156.5 237t239.5 157.5t300.5 58q395 0 608 -297l-299 -231q-67 82 -141.5 125t-172.5 43q-148 0 -245 -111t-97 -270v-4q0 -163 96.5 -273t245.5 -110q105 0 177.5 43.5t146.5 130.5l299 -213
q-114 -155 -263 -239.5t-370 -84.5zM664 1552l221 332l370 -112l-303 -220h-288z" />
    <glyph glyph-name="cacute" unicode="&#x107;" horiz-adv-x="1165" 
d="M498 1212l213 377l360 -116l-303 -261h-270zM641 -27q-164 0 -298 78.5t-208 210t-74 287.5v4q0 156 74 287.5t210.5 210.5t307.5 79q313 0 473 -245l-262 -197q-44 58 -93 87.5t-114 29.5q-94 0 -156.5 -72t-62.5 -176v-4q0 -107 62 -179.5t159 -72.5q68 0 116.5 28.5
t96.5 86.5l261 -189q-83 -123 -200.5 -188.5t-291.5 -65.5z" />
    <glyph glyph-name="Cdotaccent" unicode="&#x10a;" horiz-adv-x="1497" 
d="M643 1552v283h348v-283h-348zM819 -29q-203 0 -372 95.5t-268 266t-99 380.5v4q0 155 57.5 292.5t156.5 237t239.5 157.5t300.5 58q395 0 608 -297l-299 -231q-67 82 -141.5 125t-172.5 43q-148 0 -245 -111t-97 -270v-4q0 -163 96.5 -273t245.5 -110q105 0 177.5 43.5
t146.5 130.5l299 -213q-114 -155 -263 -239.5t-370 -84.5z" />
    <glyph glyph-name="cdotaccent" unicode="&#x10b;" horiz-adv-x="1165" 
d="M641 -27q-164 0 -298 78.5t-208 210t-74 287.5v4q0 156 74 287.5t210.5 210.5t307.5 79q313 0 473 -245l-262 -197q-44 58 -93 87.5t-114 29.5q-94 0 -156.5 -72t-62.5 -176v-4q0 -107 62 -179.5t159 -72.5q68 0 116.5 28.5t96.5 86.5l261 -189q-83 -123 -200.5 -188.5
t-291.5 -65.5zM477 1212v291h342v-291h-342z" />
    <glyph glyph-name="Ccaron" unicode="&#x10c;" horiz-adv-x="1497" 
d="M819 -29q-203 0 -372 95.5t-268 266t-99 380.5v4q0 155 57.5 292.5t156.5 237t239.5 157.5t300.5 58q395 0 608 -297l-299 -231q-67 82 -141.5 125t-172.5 43q-148 0 -245 -111t-97 -270v-4q0 -163 96.5 -273t245.5 -110q105 0 177.5 43.5t146.5 130.5l299 -213
q-114 -155 -263 -239.5t-370 -84.5zM1243 1858l-252 -306h-346l-252 306h264l162 -109l162 109h262z" />
    <glyph glyph-name="ccaron" unicode="&#x10d;" horiz-adv-x="1165" 
d="M1067 1548l-262 -336h-316l-262 336h250l172 -125l172 125h246zM641 -27q-164 0 -298 78.5t-208 210t-74 287.5v4q0 156 74 287.5t210.5 210.5t307.5 79q313 0 473 -245l-262 -197q-44 58 -93 87.5t-114 29.5q-94 0 -156.5 -72t-62.5 -176v-4q0 -107 62 -179.5t159 -72.5
q68 0 116.5 28.5t96.5 86.5l261 -189q-83 -123 -200.5 -188.5t-291.5 -65.5z" />
    <glyph glyph-name="Dcaron" unicode="&#x10e;" horiz-adv-x="1568" 
d="M1184 1837l-252 -305h-346l-252 305h264l162 -108l162 108h262zM127 0v1434h555q188 0 340.5 -52.5t254.5 -146t157 -224t55 -286.5v-4q0 -156 -55.5 -288t-158.5 -228.5t-257.5 -150.5t-343.5 -54h-547zM686 1083h-162v-731h162q182 0 289.5 96t107.5 267v4
q0 171 -107.5 267.5t-289.5 96.5z" />
    <glyph glyph-name="dcaron" unicode="&#x10f;" horiz-adv-x="1384" 
d="M1374 1128l23 441h268v-6l-133 -435h-158zM555 -25q-98 0 -187.5 40.5t-157 113t-107.5 182t-40 238.5v4q0 131 39.5 241.5t107 184t156.5 114t187 40.5q201 0 338 -160v522h389v-1495h-389v147q-67 -81 -144.5 -126.5t-191.5 -45.5zM672 301q96 0 161.5 71.5t65.5 180.5
v4q0 109 -65.5 180.5t-161.5 71.5q-94 0 -161 -72t-67 -180v-4q0 -108 67 -180t161 -72z" />
    <glyph glyph-name="Dcroat" unicode="&#x110;" horiz-adv-x="1669" 
d="M63 588v268h164v578h555q188 0 340.5 -52.5t254.5 -146t157 -224t55 -286.5v-4q0 -156 -55.5 -288t-158.5 -228.5t-257.5 -150.5t-343.5 -54h-547v588h-164zM1184 715v4q0 177 -106 276t-292 99h-172v-242h267v-260h-267v-250h172q186 0 292 98t106 275z" />
    <glyph glyph-name="dcroat" unicode="&#x111;" horiz-adv-x="1384" 
d="M584 1217v184h307v94h389v-94h129v-184h-129v-1217h-389v147q-67 -81 -144.5 -126.5t-191.5 -45.5q-98 0 -187.5 40.5t-157 113t-107.5 182t-40 238.5v4q0 131 39.5 241.5t107 184t156.5 114t187 40.5q201 0 338 -160v244h-307zM672 301q96 0 161.5 71.5t65.5 180.5v4
q0 109 -65.5 180.5t-161.5 71.5q-94 0 -161 -72t-67 -180v-4q0 -108 67 -180t161 -72z" />
    <glyph glyph-name="Emacron" unicode="&#x112;" horiz-adv-x="1368" 
d="M299 1546v240h815v-240h-815zM127 0v1434h1153v-336h-760v-219h688v-314h-688v-227h770v-338h-1163z" />
    <glyph glyph-name="emacron" unicode="&#x113;" horiz-adv-x="1241" 
d="M655 -27q-262 0 -428 160t-166 416v4q0 160 71 292.5t199.5 210t289.5 77.5q111 0 203.5 -32t157.5 -88t109.5 -132.5t65.5 -166t21 -188.5q0 -53 -2 -80h-742q46 -182 240 -182q72 0 129 26.5t117 86.5l215 -178q-175 -226 -480 -226zM428 645h387q-11 93 -63 147
t-131 54q-76 0 -125.5 -53.5t-67.5 -147.5zM240 1227v233h768v-233h-768z" />
    <glyph glyph-name="Ebreve" unicode="&#x114;" horiz-adv-x="1368" 
d="M709 1528q-173 0 -278.5 78.5t-125.5 230.5h236q20 -46 59 -69t109 -23q69 0 109 23t61 69h233q-20 -152 -124.5 -230.5t-278.5 -78.5zM127 0v1434h1153v-336h-760v-219h688v-314h-688v-227h770v-338h-1163z" />
    <glyph glyph-name="ebreve" unicode="&#x115;" horiz-adv-x="1241" 
d="M655 -27q-262 0 -428 160t-166 416v4q0 160 71 292.5t199.5 210t289.5 77.5q111 0 203.5 -32t157.5 -88t109.5 -132.5t65.5 -166t21 -188.5q0 -53 -2 -80h-742q46 -182 240 -182q72 0 129 26.5t117 86.5l215 -178q-175 -226 -480 -226zM428 645h387q-11 93 -63 147
t-131 54q-76 0 -125.5 -53.5t-67.5 -147.5zM623 1208q-173 0 -280 88.5t-124 251.5h227q20 -58 61.5 -88t115.5 -30t115 30t61 88h227q-13 -162 -121 -251t-282 -89z" />
    <glyph glyph-name="Edotaccent" unicode="&#x116;" horiz-adv-x="1368" 
d="M532 1532v283h349v-283h-349zM127 0v1434h1153v-336h-760v-219h688v-314h-688v-227h770v-338h-1163z" />
    <glyph glyph-name="edotaccent" unicode="&#x117;" horiz-adv-x="1241" 
d="M655 -27q-262 0 -428 160t-166 416v4q0 160 71 292.5t199.5 210t289.5 77.5q111 0 203.5 -32t157.5 -88t109.5 -132.5t65.5 -166t21 -188.5q0 -53 -2 -80h-742q46 -182 240 -182q72 0 129 26.5t117 86.5l215 -178q-175 -226 -480 -226zM428 645h387q-11 93 -63 147
t-131 54q-76 0 -125.5 -53.5t-67.5 -147.5zM453 1212v291h342v-291h-342z" />
    <glyph glyph-name="Eogonek" unicode="&#x118;" horiz-adv-x="1368" 
d="M127 0v1434h1153v-336h-760v-219h688v-314h-688v-227h770v-338h-104q-45 -51 -45 -96q0 -42 35 -60t112 -14v-166q-57 -8 -121 -8q-145 0 -228 49t-83 129q0 84 82 166h-811z" />
    <glyph glyph-name="eogonek" unicode="&#x119;" horiz-adv-x="1241" 
d="M428 645h387q-11 93 -63 147t-131 54q-76 0 -125.5 -53.5t-67.5 -147.5zM920 377l215 -178q-99 -108 -131 -136q-54 -53 -75.5 -87t-21.5 -64q0 -88 150 -82v-166q-57 -8 -123 -8q-144 0 -226.5 47.5t-82.5 124.5q0 70 71 147q-7 0 -20.5 -1t-20.5 -1q-262 0 -428 160
t-166 416v4q0 160 71 292.5t199.5 210t289.5 77.5q111 0 203.5 -32t157.5 -88t109.5 -132.5t65.5 -166t21 -188.5q0 -53 -2 -80h-742q46 -182 240 -182q72 0 129 26.5t117 86.5z" />
    <glyph glyph-name="Ecaron" unicode="&#x11a;" horiz-adv-x="1368" 
d="M1133 1837l-252 -305h-346l-252 305h264l162 -108l161 108h263zM127 0v1434h1153v-336h-760v-219h688v-314h-688v-227h770v-338h-1163z" />
    <glyph glyph-name="ecaron" unicode="&#x11b;" horiz-adv-x="1241" 
d="M1042 1548l-262 -336h-315l-262 336h250l172 -125l172 125h245zM655 -27q-262 0 -428 160t-166 416v4q0 160 71 292.5t199.5 210t289.5 77.5q111 0 203.5 -32t157.5 -88t109.5 -132.5t65.5 -166t21 -188.5q0 -53 -2 -80h-742q46 -182 240 -182q72 0 129 26.5t117 86.5
l215 -178q-175 -226 -480 -226zM428 645h387q-11 93 -63 147t-131 54q-76 0 -125.5 -53.5t-67.5 -147.5z" />
    <glyph glyph-name="Gbreve" unicode="&#x11e;" horiz-adv-x="1574" 
d="M836 1548q-173 0 -278.5 79t-125.5 231h236q39 -93 168 -93q69 0 109 23.5t61 69.5h233q-20 -152 -124.5 -231t-278.5 -79zM858 -29q-222 0 -399.5 94t-278 263.5t-100.5 384.5v4q0 155 58.5 292.5t160 237t245 157.5t306.5 58q183 0 322 -52t260 -155l-234 -282
q-82 69 -162 102t-184 33q-154 0 -260.5 -113.5t-106.5 -277.5v-4q0 -175 109.5 -287.5t279.5 -112.5q142 0 230 60v174h-281v291h658v-643q-267 -224 -623 -224z" />
    <glyph glyph-name="gbreve" unicode="&#x11f;" horiz-adv-x="1384" 
d="M649 -332q-302 0 -553 127l125 258q191 -104 387 -104q289 0 289 272v43q-70 -78 -149 -122t-191 -44q-137 0 -248.5 61.5t-178.5 180t-67 272.5v4q0 116 39.5 214.5t105.5 164t153 102t182 36.5q118 0 198 -40.5t150 -115.5v131h389v-842q0 -302 -143 -442
q-150 -156 -488 -156zM672 397q99 0 163 61t64 154v4q0 92 -64.5 153.5t-162.5 61.5q-99 0 -163.5 -61.5t-64.5 -155.5v-4q0 -92 64 -152.5t164 -60.5zM711 1208q-173 0 -280 88.5t-124 251.5h228q20 -58 61 -88t115 -30t115 30t61 88h227q-13 -162 -121 -251t-282 -89z" />
    <glyph glyph-name="Gdotaccent" unicode="&#x120;" horiz-adv-x="1574" 
d="M659 1552v283h349v-283h-349zM858 -29q-222 0 -399.5 94t-278 263.5t-100.5 384.5v4q0 155 58.5 292.5t160 237t245 157.5t306.5 58q183 0 322 -52t260 -155l-234 -282q-82 69 -162 102t-184 33q-154 0 -260.5 -113.5t-106.5 -277.5v-4q0 -175 109.5 -287.5t279.5 -112.5
q142 0 230 60v174h-281v291h658v-643q-267 -224 -623 -224z" />
    <glyph glyph-name="gdotaccent" unicode="&#x121;" horiz-adv-x="1384" 
d="M649 -332q-302 0 -553 127l125 258q191 -104 387 -104q289 0 289 272v43q-70 -78 -149 -122t-191 -44q-137 0 -248.5 61.5t-178.5 180t-67 272.5v4q0 116 39.5 214.5t105.5 164t153 102t182 36.5q118 0 198 -40.5t150 -115.5v131h389v-842q0 -302 -143 -442
q-150 -156 -488 -156zM672 397q99 0 163 61t64 154v4q0 92 -64.5 153.5t-162.5 61.5q-99 0 -163.5 -61.5t-64.5 -155.5v-4q0 -92 64 -152.5t164 -60.5zM541 1212v291h342v-291h-342z" />
    <glyph glyph-name="Gcommaaccent" unicode="&#x122;" horiz-adv-x="1574" 
d="M668 -641l-17 117q89 7 126 39.5t32 93.5h-139v278h331v-227q0 -155 -83.5 -225t-249.5 -76zM858 -29q-222 0 -399.5 94t-278 263.5t-100.5 384.5v4q0 155 58.5 292.5t160 237t245 157.5t306.5 58q183 0 322 -52t260 -155l-234 -282q-82 69 -162 102t-184 33
q-154 0 -260.5 -113.5t-106.5 -277.5v-4q0 -175 109.5 -287.5t279.5 -112.5q142 0 230 60v174h-281v291h658v-643q-267 -224 -623 -224z" />
    <glyph glyph-name="gcommaaccent" unicode="&#x123;" horiz-adv-x="1384" 
d="M874 1739l17 -115q-90 -10 -126.5 -42t-31.5 -93h139v-277h-331v228q0 154 83 223.5t250 75.5zM649 -332q-302 0 -553 127l125 258q191 -104 387 -104q289 0 289 272v43q-70 -78 -149 -122t-191 -44q-137 0 -248.5 61.5t-178.5 180t-67 272.5v4q0 116 39.5 214.5
t105.5 164t153 102t182 36.5q118 0 198 -40.5t150 -115.5v131h389v-842q0 -302 -143 -442q-150 -156 -488 -156zM672 397q99 0 163 61t64 154v4q0 92 -64.5 153.5t-162.5 61.5q-99 0 -163.5 -61.5t-64.5 -155.5v-4q0 -92 64 -152.5t164 -60.5z" />
    <glyph glyph-name="Hbar" unicode="&#x126;" horiz-adv-x="1558" 
d="M4 1059v215h123v160h397v-160h510v160h398v-160h122v-215h-122v-1059h-398v545h-510v-545h-397v1059h-123zM524 897h510v166h-510v-166z" />
    <glyph glyph-name="hbar" unicode="&#x127;" horiz-adv-x="1298" 
d="M801 1217h-307v-261q139 177 331 177q178 0 277.5 -108.5t99.5 -299.5v-725h-387v600q0 91 -42.5 139.5t-115.5 48.5q-74 0 -118.5 -49t-44.5 -139v-600h-390v1217h-129v184h129v94h390v-94h307v-184z" />
    <glyph glyph-name="Imacron" unicode="&#x12a;" horiz-adv-x="669" 
d="M137 0v1434h398v-1434h-398zM-70 1546v240h815v-240h-815z" />
    <glyph glyph-name="imacron" unicode="&#x12b;" horiz-adv-x="616" 
d="M115 0v1108h387v-1108h-387zM-74 1219v233h768v-233h-768z" />
    <glyph glyph-name="Ibreve" unicode="&#x12c;" horiz-adv-x="669" 
d="M137 0v1434h398v-1434h-398zM338 1528q-173 0 -278.5 78.5t-125.5 230.5h236q20 -46 59 -69t109 -23q69 0 109 23t61 69h233q-20 -152 -124.5 -230.5t-278.5 -78.5z" />
    <glyph glyph-name="ibreve" unicode="&#x12d;" horiz-adv-x="616" 
d="M115 0v1108h387v-1108h-387zM309 1200q-173 0 -279.5 88.5t-123.5 251.5h227q20 -58 61 -88.5t115 -30.5t115 30.5t61 88.5h228q-13 -162 -121.5 -251t-282.5 -89z" />
    <glyph glyph-name="Iogonek" unicode="&#x12e;" horiz-adv-x="669" 
d="M137 0v1434h398v-1434h-74q-45 -51 -45 -96q0 -42 35 -60t112 -14v-166q-57 -8 -121 -8q-145 0 -228 49t-83 129q0 84 82 166h-76z" />
    <glyph glyph-name="iogonek" unicode="&#x12f;" horiz-adv-x="616" 
d="M115 0v1108h387v-1108h-74q-45 -51 -45 -96q0 -42 35 -60t112 -14v-166q-57 -8 -120 -8q-145 0 -228.5 49t-83.5 129q0 84 82 166h-65zM106 1208v287h404v-287h-404z" />
    <glyph glyph-name="Idotaccent" unicode="&#x130;" horiz-adv-x="669" 
d="M137 0v1434h398v-1434h-398zM164 1532v283h348v-283h-348z" />
    <glyph glyph-name="dotlessi" unicode="&#x131;" horiz-adv-x="616" 
d="M115 0v1108h387v-1108h-387z" />
    <glyph glyph-name="Kcommaaccent" unicode="&#x136;" horiz-adv-x="1495" 
d="M584 -625l-17 117q89 7 126 39.5t32 93.5h-139v279h332v-228q0 -155 -84 -225t-250 -76zM127 0v1434h397v-582l494 582h471l-543 -615l561 -819h-475l-362 532l-146 -159v-373h-397z" />
    <glyph glyph-name="kcommaaccent" unicode="&#x137;" horiz-adv-x="1234" 
d="M473 -629l-16 117q89 7 125.5 39.5t31.5 93.5h-139v279h332v-228q0 -155 -84 -225t-250 -76zM104 0v1495h390v-758l301 371h440l-385 -442l395 -666h-430l-221 379l-100 -117v-262h-390z" />
    <glyph glyph-name="Lacute" unicode="&#x139;" horiz-adv-x="1263" 
d="M215 1532l221 332l371 -113l-303 -219h-289zM127 0v1434h397v-1086h695v-348h-1092z" />
    <glyph glyph-name="lacute" unicode="&#x13a;" horiz-adv-x="616" 
d="M160 1573l221 332l371 -113l-303 -219h-289zM115 0v1495h387v-1495h-387z" />
    <glyph glyph-name="Lcommaaccent" unicode="&#x13b;" horiz-adv-x="1263" 
d="M506 -629l-17 117q89 7 126 39.5t32 93.5h-139v279h332v-228q0 -155 -84 -225t-250 -76zM127 0v1434h397v-1086h695v-348h-1092z" />
    <glyph glyph-name="lcommaaccent" unicode="&#x13c;" horiz-adv-x="616" 
d="M143 -629l-16 117q89 7 126 39.5t32 93.5h-140v279h332v-228q0 -155 -84 -225t-250 -76zM115 0v1495h387v-1495h-387z" />
    <glyph glyph-name="Lcaron" unicode="&#x13d;" horiz-adv-x="1263" 
d="M643 995l23 441h268v-6l-133 -435h-158zM127 0v1434h397v-1086h695v-348h-1092z" />
    <glyph glyph-name="lcaron" unicode="&#x13e;" horiz-adv-x="616" 
d="M596 1128l22 441h269v-6l-133 -435h-158zM115 0v1495h387v-1495h-387z" />
    <glyph glyph-name="Ldot" unicode="&#x13f;" horiz-adv-x="1263" 
d="M811 670v317h326v-317h-326zM127 0v1434h397v-1086h695v-348h-1092z" />
    <glyph glyph-name="ldot" unicode="&#x140;" horiz-adv-x="858" 
d="M600 618v314h274v-314h-274zM115 0v1495h387v-1495h-387z" />
    <glyph glyph-name="Lslash" unicode="&#x141;" horiz-adv-x="1355" 
d="M918 762l-304 -131v-283h697v-348h-1092v461l-156 -66v357l156 65v617h395v-447l304 129v-354z" />
    <glyph glyph-name="lslash" unicode="&#x142;" horiz-adv-x="821" 
d="M772 750l-168 -78v-672h-387v496l-168 -76v348l168 76v651h387v-475l168 78v-348z" />
    <glyph glyph-name="Nacute" unicode="&#x143;" horiz-adv-x="1607" 
d="M651 1532l221 332l371 -113l-303 -219h-289zM127 0v1434h371l589 -758v758h394v-1434h-346l-615 786v-786h-393z" />
    <glyph glyph-name="nacute" unicode="&#x144;" horiz-adv-x="1298" 
d="M504 1212l213 377l360 -116l-303 -261h-270zM104 0v1108h390v-156q142 181 331 181q178 0 277.5 -108.5t99.5 -299.5v-725h-387v600q0 91 -42.5 139.5t-115.5 48.5q-74 0 -118.5 -49t-44.5 -139v-600h-390z" />
    <glyph glyph-name="Ncommaaccent" unicode="&#x145;" horiz-adv-x="1607" 
d="M637 -625l-16 117q89 7 125.5 39.5t31.5 93.5h-139v279h332v-228q0 -155 -84 -225t-250 -76zM127 0v1434h371l589 -758v758h394v-1434h-346l-615 786v-786h-393z" />
    <glyph glyph-name="ncommaaccent" unicode="&#x146;" horiz-adv-x="1298" 
d="M485 -629l-16 117q89 7 126 39.5t32 93.5h-140v279h332v-228q0 -155 -84 -225t-250 -76zM104 0v1108h390v-156q142 181 331 181q178 0 277.5 -108.5t99.5 -299.5v-725h-387v600q0 91 -42.5 139.5t-115.5 48.5q-74 0 -118.5 -49t-44.5 -139v-600h-390z" />
    <glyph glyph-name="Ncaron" unicode="&#x147;" horiz-adv-x="1607" 
d="M1229 1837l-252 -305h-346l-252 305h264l162 -108l162 108h262zM127 0v1434h371l589 -758v758h394v-1434h-346l-615 786v-786h-393z" />
    <glyph glyph-name="ncaron" unicode="&#x148;" horiz-adv-x="1298" 
d="M1071 1548l-262 -336h-315l-263 336h250l172 -125l172 125h246zM104 0v1108h390v-156q142 181 331 181q178 0 277.5 -108.5t99.5 -299.5v-725h-387v600q0 91 -42.5 139.5t-115.5 48.5q-74 0 -118.5 -49t-44.5 -139v-600h-390z" />
    <glyph glyph-name="Omacron" unicode="&#x14c;" horiz-adv-x="1701" 
d="M442 1567v239h815v-239h-815zM850 -29q-163 0 -306.5 58.5t-245 158.5t-160 236.5t-58.5 288.5v4q0 152 59.5 289.5t161.5 237.5t246 159t307 59q217 0 394 -99.5t276.5 -269t99.5 -372.5v-4q0 -152 -59.5 -290t-161.5 -238t-246 -159t-307 -59zM854 330q159 0 261 112
t102 271v4q0 161 -103 274t-264 113t-263 -112t-102 -271v-4q0 -158 104.5 -272.5t264.5 -114.5z" />
    <glyph glyph-name="omacron" unicode="&#x14d;" horiz-adv-x="1343" 
d="M289 1227v233h768v-233h-768zM670 -27q-129 0 -243 45.5t-194 123t-126 183.5t-46 224v4q0 118 46.5 224.5t127 184.5t195 124.5t244.5 46.5q173 0 313.5 -78t218.5 -210t78 -288v-4q0 -157 -79 -290t-220.5 -211.5t-314.5 -78.5zM674 303q103 0 168 71.5t65 174.5v4
q0 105 -67 178.5t-170 73.5q-104 0 -168 -71.5t-64 -176.5v-4q0 -103 67.5 -176.5t168.5 -73.5z" />
    <glyph glyph-name="Obreve" unicode="&#x14e;" horiz-adv-x="1701" 
d="M852 1548q-173 0 -278 79t-125 231h235q39 -93 168 -93q69 0 109 23.5t61 69.5h233q-20 -152 -124.5 -231t-278.5 -79zM850 -29q-163 0 -306.5 58.5t-245 158.5t-160 236.5t-58.5 288.5v4q0 152 59.5 289.5t161.5 237.5t246 159t307 59q217 0 394 -99.5t276.5 -269
t99.5 -372.5v-4q0 -152 -59.5 -290t-161.5 -238t-246 -159t-307 -59zM854 330q159 0 261 112t102 271v4q0 161 -103 274t-264 113t-263 -112t-102 -271v-4q0 -158 104.5 -272.5t264.5 -114.5z" />
    <glyph glyph-name="obreve" unicode="&#x14f;" horiz-adv-x="1343" 
d="M670 -27q-129 0 -243 45.5t-194 123t-126 183.5t-46 224v4q0 118 46.5 224.5t127 184.5t195 124.5t244.5 46.5q173 0 313.5 -78t218.5 -210t78 -288v-4q0 -157 -79 -290t-220.5 -211.5t-314.5 -78.5zM674 303q103 0 168 71.5t65 174.5v4q0 105 -67 178.5t-170 73.5
q-104 0 -168 -71.5t-64 -176.5v-4q0 -103 67.5 -176.5t168.5 -73.5zM672 1208q-173 0 -280 88.5t-124 251.5h228q20 -58 61 -88t115 -30t115 30t61 88h227q-13 -162 -121 -251t-282 -89z" />
    <glyph glyph-name="Ohungarumlaut" unicode="&#x150;" horiz-adv-x="1701" 
d="M850 -29q-163 0 -306.5 58.5t-245 158.5t-160 236.5t-58.5 288.5v4q0 152 59.5 289.5t161.5 237.5t246 159t307 59q217 0 394 -99.5t276.5 -269t99.5 -372.5v-4q0 -152 -59.5 -290t-161.5 -238t-246 -159t-307 -59zM854 330q159 0 261 112t102 271v4q0 161 -103 274
t-264 113t-263 -112t-102 -271v-4q0 -158 104.5 -272.5t264.5 -114.5zM895 1552l127 201l-268 -201h-262l210 332l334 -110l70 110l344 -112l-293 -220h-262z" />
    <glyph glyph-name="ohungarumlaut" unicode="&#x151;" horiz-adv-x="1343" 
d="M322 1212l198 379l334 -114l61 112l342 -116l-294 -261h-248l131 248l-277 -248h-247zM670 -27q-129 0 -243 45.5t-194 123t-126 183.5t-46 224v4q0 118 46.5 224.5t127 184.5t195 124.5t244.5 46.5q173 0 313.5 -78t218.5 -210t78 -288v-4q0 -157 -79 -290
t-220.5 -211.5t-314.5 -78.5zM674 303q103 0 168 71.5t65 174.5v4q0 105 -67 178.5t-170 73.5q-104 0 -168 -71.5t-64 -176.5v-4q0 -103 67.5 -176.5t168.5 -73.5z" />
    <glyph glyph-name="OE" unicode="&#x152;" horiz-adv-x="2207" 
d="M2130 0h-1243q-188 0 -340.5 52.5t-254.5 146t-157 224t-55 286.5v4q0 156 55.5 288t158.5 228.5t257.5 150.5t343.5 54h1225v-336h-715v-219h643v-314h-643v-227h725v-338zM877 346h137v744h-137q-177 0 -284.5 -99t-107.5 -270v-4q0 -172 107 -271.5t285 -99.5z" />
    <glyph glyph-name="oe" unicode="&#x153;" horiz-adv-x="2076" 
d="M655 -27q-164 0 -301 77.5t-215 210t-78 288.5v4q0 117 46.5 224t126.5 185t192 124.5t238 46.5q251 0 411 -166q153 166 385 166q136 0 243.5 -48.5t174 -133t101 -192.5t34.5 -233q0 -53 -2 -80h-741q46 -182 239 -182q72 0 129 26.5t117 86.5l215 -178
q-175 -226 -475 -226q-261 0 -426 168q-162 -168 -414 -168zM1264 645h387q-11 92 -63.5 146.5t-131.5 54.5q-76 0 -125 -53t-67 -148zM670 303q100 0 163.5 71.5t63.5 174.5v4q0 104 -66.5 178t-164.5 74q-101 0 -164.5 -73t-63.5 -175v-4q0 -103 66 -176.5t166 -73.5z" />
    <glyph glyph-name="Racute" unicode="&#x154;" horiz-adv-x="1472" 
d="M127 0v1434h678q313 0 467 -154q127 -127 127 -334v-4q0 -161 -77.5 -272t-217.5 -170l342 -500h-457l-289 434h-176v-434h-397zM524 745h264q99 0 156 46t57 124v5q0 84 -57 128t-158 44h-262v-347zM565 1532l221 332l371 -113l-303 -219h-289z" />
    <glyph glyph-name="racute" unicode="&#x155;" horiz-adv-x="876" 
d="M319 1204l213 377l361 -117l-303 -260h-271zM104 0v1108h390v-223q51 121 134.5 184t215.5 57v-409h-33q-317 0 -317 -371v-346h-390z" />
    <glyph glyph-name="Rcommaaccent" unicode="&#x156;" horiz-adv-x="1472" 
d="M557 -625l-16 117q89 7 125.5 39.5t31.5 93.5h-139v279h332v-228q0 -155 -84 -225t-250 -76zM127 0v1434h678q313 0 467 -154q127 -127 127 -334v-4q0 -161 -77.5 -272t-217.5 -170l342 -500h-457l-289 434h-176v-434h-397zM524 745h264q99 0 156 46t57 124v5
q0 84 -57 128t-158 44h-262v-347z" />
    <glyph glyph-name="rcommaaccent" unicode="&#x157;" horiz-adv-x="876" 
d="M145 -629l-16 117q89 7 126 39.5t32 93.5h-140v279h332v-228q0 -155 -84 -225t-250 -76zM104 0v1108h390v-223q51 121 134.5 184t215.5 57v-409h-33q-317 0 -317 -371v-346h-390z" />
    <glyph glyph-name="Rcaron" unicode="&#x158;" horiz-adv-x="1472" 
d="M1145 1837l-252 -305h-346l-252 305h264l162 -108l162 108h262zM127 0v1434h678q313 0 467 -154q127 -127 127 -334v-4q0 -161 -77.5 -272t-217.5 -170l342 -500h-457l-289 434h-176v-434h-397zM524 745h264q99 0 156 46t57 124v5q0 84 -57 128t-158 44h-262v-347z" />
    <glyph glyph-name="rcaron" unicode="&#x159;" horiz-adv-x="876" 
d="M891 1540l-262 -336h-316l-262 336h250l172 -125l172 125h246zM104 0v1108h390v-223q51 121 134.5 184t215.5 57v-409h-33q-317 0 -317 -371v-346h-390z" />
    <glyph glyph-name="Sacute" unicode="&#x15a;" horiz-adv-x="1335" 
d="M690 -25q-194 0 -366 60.5t-306 177.5l222 264q217 -172 465 -172q165 0 165 98v5q0 46 -48.5 74.5t-194.5 64.5q-73 17 -126 31.5t-113 36t-102 45t-82 57t-64.5 73t-39 91.5t-14.5 114v4q0 204 150.5 331.5t404.5 127.5q353 0 590 -190l-199 -281q-192 141 -401 141
q-70 0 -107 -25t-37 -67v-4q0 -33 20.5 -55t74.5 -42t155 -42q131 -29 223 -63.5t165 -86t109 -125.5t36 -172v-4q0 -217 -158 -342t-422 -125zM518 1552l221 332l371 -112l-303 -220h-289z" />
    <glyph glyph-name="sacute" unicode="&#x15b;" horiz-adv-x="1052" 
d="M385 1212l213 377l360 -116l-303 -261h-270zM545 -25q-296 0 -522 166l145 234q195 -127 379 -127q100 0 100 59v4q0 35 -58 59q-29 12 -122 38q-92 23 -155.5 48t-121.5 65t-87 99.5t-29 139.5v4q0 172 124 269t320 97q254 0 457 -129l-133 -245q-85 49 -173 76.5
t-155 27.5q-43 0 -66.5 -15t-23.5 -40v-4q0 -30 39.5 -49t140.5 -50q73 -20 126 -39t106 -48.5t86.5 -65t54 -86t20.5 -113.5v-4q0 -179 -122 -275t-330 -96z" />
    <glyph glyph-name="Scedilla" unicode="&#x15e;" horiz-adv-x="1335" 
d="M668 -354l-308 131l156 213q-294 42 -498 223l222 264q217 -172 465 -172q165 0 165 98v5q0 46 -48.5 74.5t-194.5 64.5q-73 17 -126 31.5t-113 36t-102 45t-82 57t-64.5 73t-39 91.5t-14.5 114v4q0 204 150.5 331.5t404.5 127.5q353 0 590 -190l-199 -281
q-192 141 -401 141q-70 0 -107 -25t-37 -67v-4q0 -33 20.5 -55t74.5 -42t155 -42q131 -29 223 -63.5t165 -86t109 -125.5t36 -172v-4q0 -197 -131 -318t-355 -142z" />
    <glyph glyph-name="scedilla" unicode="&#x15f;" horiz-adv-x="1052" 
d="M516 -354l-307 131l158 215q-187 34 -344 149l145 234q195 -127 379 -127q100 0 100 59v4q0 35 -58 59q-29 12 -122 38q-92 23 -155.5 48t-121.5 65t-87 99.5t-29 139.5v4q0 172 124 269t320 97q254 0 457 -129l-133 -245q-85 49 -173 76.5t-155 27.5q-43 0 -66.5 -15
t-23.5 -40v-4q0 -30 39.5 -49t140.5 -50q73 -20 126 -39t106 -48.5t86.5 -65t54 -86t20.5 -113.5v-4q0 -160 -96.5 -252.5t-267.5 -111.5z" />
    <glyph glyph-name="Scaron" unicode="&#x160;" horiz-adv-x="1335" 
d="M690 -25q-194 0 -366 60.5t-306 177.5l222 264q217 -172 465 -172q165 0 165 98v5q0 46 -48.5 74.5t-194.5 64.5q-73 17 -126 31.5t-113 36t-102 45t-82 57t-64.5 73t-39 91.5t-14.5 114v4q0 204 150.5 331.5t404.5 127.5q353 0 590 -190l-199 -281q-192 141 -401 141
q-70 0 -107 -25t-37 -67v-4q0 -33 20.5 -55t74.5 -42t155 -42q131 -29 223 -63.5t165 -86t109 -125.5t36 -172v-4q0 -217 -158 -342t-422 -125zM1098 1858l-252 -306h-346l-252 306h264l162 -109l162 109h262z" />
    <glyph glyph-name="scaron" unicode="&#x161;" horiz-adv-x="1052" 
d="M952 1548l-262 -336h-315l-262 336h249l173 -125l172 125h245zM545 -25q-296 0 -522 166l145 234q195 -127 379 -127q100 0 100 59v4q0 35 -58 59q-29 12 -122 38q-92 23 -155.5 48t-121.5 65t-87 99.5t-29 139.5v4q0 172 124 269t320 97q254 0 457 -129l-133 -245
q-85 49 -173 76.5t-155 27.5q-43 0 -66.5 -15t-23.5 -40v-4q0 -30 39.5 -49t140.5 -50q73 -20 126 -39t106 -48.5t86.5 -65t54 -86t20.5 -113.5v-4q0 -179 -122 -275t-330 -96z" />
    <glyph glyph-name="Tcommaaccent" unicode="&#x162;" horiz-adv-x="1351" 
d="M510 -629l-16 117q89 7 125.5 39.5t31.5 93.5h-139v279h332v-228q0 -155 -84 -225t-250 -76zM477 0v1085h-428v349h1256v-349h-431v-1085h-397z" />
    <glyph glyph-name="Tcommaaccent" unicode="&#x21a;" horiz-adv-x="1351" 
d="M510 -629l-16 117q89 7 125.5 39.5t31.5 93.5h-139v279h332v-228q0 -155 -84 -225t-250 -76zM477 0v1085h-428v349h1256v-349h-431v-1085h-397z" />
    <glyph glyph-name="tcommaaccent" unicode="&#x163;" horiz-adv-x="882" 
d="M309 -635l-16 117q89 7 126 39.5t32 93.5h-140v279h332v-228q0 -155 -84 -225t-250 -76zM545 -23q-183 0 -277 87.5t-94 279.5v453h-131v311h131v281h387v-281h258v-311h-258v-377q0 -59 26 -85t81 -26q71 0 147 37v-303q-122 -66 -270 -66z" />
    <glyph glyph-name="tcommaaccent" unicode="&#x21b;" horiz-adv-x="882" 
d="M309 -635l-16 117q89 7 126 39.5t32 93.5h-140v279h332v-228q0 -155 -84 -225t-250 -76zM545 -23q-183 0 -277 87.5t-94 279.5v453h-131v311h131v281h387v-281h258v-311h-258v-377q0 -59 26 -85t81 -26q71 0 147 37v-303q-122 -66 -270 -66z" />
    <glyph glyph-name="Tcaron" unicode="&#x164;" horiz-adv-x="1351" 
d="M1102 1837l-252 -305h-346l-252 305h264l162 -108l162 108h262zM477 0v1085h-428v349h1256v-349h-431v-1085h-397z" />
    <glyph glyph-name="tcaron" unicode="&#x165;" horiz-adv-x="882" 
d="M662 1198l22 440h268v-6l-133 -434h-157zM545 -23q-183 0 -277 87.5t-94 279.5v453h-131v311h131v281h387v-281h258v-311h-258v-377q0 -59 26 -85t81 -26q71 0 147 37v-303q-122 -66 -270 -66z" />
    <glyph glyph-name="Umacron" unicode="&#x16a;" horiz-adv-x="1552" 
d="M369 1546v240h815v-240h-815zM772 -27q-154 0 -275 39.5t-207.5 119t-132.5 205t-46 292.5v805h401v-797q0 -152 69.5 -228.5t194.5 -76.5q127 0 196.5 73.5t69.5 221.5v807h402v-795q0 -170 -47.5 -298t-136 -208.5t-211 -120t-277.5 -39.5z" />
    <glyph glyph-name="umacron" unicode="&#x16b;" horiz-adv-x="1298" 
d="M475 -25q-178 0 -278.5 109.5t-100.5 300.5v723h389v-600q0 -90 42 -138t116 -48t119 48t45 138v600h387v-1108h-387v154q-136 -179 -332 -179zM260 1219v233h768v-233h-768z" />
    <glyph glyph-name="Ubreve" unicode="&#x16c;" horiz-adv-x="1552" 
d="M776 1511q-173 0 -278 79t-125 231h235q20 -46 59 -69t109 -23q69 0 109 23t61 69h234q-20 -152 -125 -231t-279 -79zM772 -27q-154 0 -275 39.5t-207.5 119t-132.5 205t-46 292.5v805h401v-797q0 -152 69.5 -228.5t194.5 -76.5q127 0 196.5 73.5t69.5 221.5v807h402
v-795q0 -170 -47.5 -298t-136 -208.5t-211 -120t-277.5 -39.5z" />
    <glyph glyph-name="ubreve" unicode="&#x16d;" horiz-adv-x="1298" 
d="M475 -25q-178 0 -278.5 109.5t-100.5 300.5v723h389v-600q0 -90 42 -138t116 -48t119 48t45 138v600h387v-1108h-387v154q-136 -179 -332 -179zM643 1200q-173 0 -279.5 88.5t-123.5 251.5h227q20 -58 61 -88.5t115 -30.5t115 30.5t61 88.5h228q-13 -162 -121.5 -251
t-282.5 -89z" />
    <glyph glyph-name="Uring" unicode="&#x16e;" horiz-adv-x="1552" 
d="M772 -27q-154 0 -275 39.5t-207.5 119t-132.5 205t-46 292.5v805h401v-797q0 -152 69.5 -228.5t194.5 -76.5q127 0 196.5 73.5t69.5 221.5v807h402v-795q0 -170 -47.5 -298t-136 -208.5t-211 -120t-277.5 -39.5zM776 1491q-121 0 -205 73.5t-84 184.5q0 109 84 182.5
t205 73.5t205 -73.5t84 -182.5q0 -111 -84 -184.5t-205 -73.5zM776 1616q65 0 106.5 37.5t41.5 95.5q0 56 -41.5 94.5t-106.5 38.5t-106 -38t-41 -95q0 -58 41 -95.5t106 -37.5z" />
    <glyph glyph-name="uring" unicode="&#x16f;" horiz-adv-x="1298" 
d="M643 1186q-111 0 -190.5 76t-79.5 184t79.5 184t190.5 76q114 0 193 -75.5t79 -184.5t-79 -184.5t-193 -75.5zM643 1305q60 0 100.5 40.5t40.5 100.5t-40.5 101.5t-100.5 41.5t-99.5 -41.5t-39.5 -101.5t39.5 -100.5t99.5 -40.5zM475 -25q-178 0 -278.5 109.5
t-100.5 300.5v723h389v-600q0 -90 42 -138t116 -48t119 48t45 138v600h387v-1108h-387v154q-136 -179 -332 -179z" />
    <glyph glyph-name="Uhungarumlaut" unicode="&#x170;" horiz-adv-x="1552" 
d="M772 -27q-154 0 -275 39.5t-207.5 119t-132.5 205t-46 292.5v805h401v-797q0 -152 69.5 -228.5t194.5 -76.5q127 0 196.5 73.5t69.5 221.5v807h402v-795q0 -170 -47.5 -298t-136 -208.5t-211 -120t-277.5 -39.5zM809 1532l127 201l-268 -201h-262l210 332l334 -111
l70 111l344 -113l-293 -219h-262z" />
    <glyph glyph-name="uhungarumlaut" unicode="&#x171;" horiz-adv-x="1298" 
d="M475 -25q-178 0 -278.5 109.5t-100.5 300.5v723h389v-600q0 -90 42 -138t116 -48t119 48t45 138v600h387v-1108h-387v154q-136 -179 -332 -179zM289 1204l198 379l334 -115l62 113l342 -117l-295 -260h-248l131 248l-276 -248h-248z" />
    <glyph glyph-name="Uogonek" unicode="&#x172;" horiz-adv-x="1552" 
d="M991 -170v-166q-57 -8 -121 -8q-145 0 -228 49t-83 129q0 72 66 150q-245 33 -379.5 195.5t-134.5 449.5v805h401v-797q0 -152 69.5 -228.5t194.5 -76.5q127 0 196.5 73.5t69.5 221.5v807h402v-795q0 -308 -150.5 -472t-421.5 -190q-28 -39 -28 -73q0 -42 35 -60t112 -14
z" />
    <glyph glyph-name="uogonek" unicode="&#x173;" horiz-adv-x="1298" 
d="M475 -25q-178 0 -278.5 109.5t-100.5 300.5v723h389v-600q0 -90 42 -138t116 -48t119 48t45 138v600h387v-1108h-84q-45 -51 -45 -96q0 -42 35 -60t112 -14v-166q-57 -8 -120 -8q-145 0 -228.5 49t-83.5 129q0 84 82 166h-55v154q-136 -179 -332 -179z" />
    <glyph glyph-name="Wcircumflex" unicode="&#x174;" horiz-adv-x="2287" 
d="M510 -10l-479 1444h420l249 -830l277 834h342l276 -834l250 830h412l-479 -1444h-346l-287 825l-289 -825h-346zM719 1532l252 305h346l252 -305h-266l-162 108l-162 -108h-260z" />
    <glyph glyph-name="wcircumflex" unicode="&#x175;" horiz-adv-x="1763" 
d="M461 1204l262 336h315l262 -336h-249l-172 125l-172 -125h-246zM365 -8l-338 1116h379l145 -557l172 561h319l172 -565l150 561h375l-342 -1116h-336l-180 577l-185 -577h-331z" />
    <glyph glyph-name="Ycircumflex" unicode="&#x176;" horiz-adv-x="1480" 
d="M543 0v537l-547 897h453l294 -523l297 523h445l-545 -891v-543h-397zM315 1532l252 305h346l252 -305h-266l-162 108l-162 -108h-260z" />
    <glyph glyph-name="ycircumflex" unicode="&#x177;" horiz-adv-x="1282" 
d="M651 440l209 668h400l-406 -1081q-75 -200 -166.5 -280.5t-255.5 -80.5q-185 0 -354 96l119 273q97 -60 170 -60q57 0 92 45l-434 1088h405zM227 1204l262 336h316l262 -336h-250l-172 125l-172 -125h-246z" />
    <glyph glyph-name="Ydieresis" unicode="&#x178;" horiz-adv-x="1480" 
d="M543 0v537l-547 897h453l294 -523l297 523h445l-545 -891v-543h-397zM797 1532v283h338v-283h-338zM344 1532v283h338v-283h-338z" />
    <glyph glyph-name="Zacute" unicode="&#x179;" horiz-adv-x="1429" 
d="M84 0v289l719 811h-694v334h1241v-287l-719 -811h719v-336h-1266zM578 1532l221 332l370 -113l-303 -219h-288z" />
    <glyph glyph-name="zacute" unicode="&#x17a;" horiz-adv-x="1153" 
d="M442 1204l213 377l361 -117l-303 -260h-271zM68 0v256l510 545h-492v307h1008v-254l-514 -545h514v-309h-1026z" />
    <glyph glyph-name="Zdotaccent" unicode="&#x17b;" horiz-adv-x="1429" 
d="M557 1532v283h348v-283h-348zM84 0v289l719 811h-694v334h1241v-287l-719 -811h719v-336h-1266z" />
    <glyph glyph-name="zdotaccent" unicode="&#x17c;" horiz-adv-x="1153" 
d="M68 0v256l510 545h-492v307h1008v-254l-514 -545h514v-309h-1026zM420 1204v291h342v-291h-342z" />
    <glyph glyph-name="Zcaron" unicode="&#x17d;" horiz-adv-x="1429" 
d="M1157 1837l-252 -305h-346l-252 305h264l162 -108l162 108h262zM84 0v289l719 811h-694v334h1241v-287l-719 -811h719v-336h-1266z" />
    <glyph glyph-name="zcaron" unicode="&#x17e;" horiz-adv-x="1153" 
d="M1010 1540l-262 -336h-316l-262 336h250l172 -125l172 125h246zM68 0v256l510 545h-492v307h1008v-254l-514 -545h514v-309h-1026z" />
    <glyph glyph-name="uni018F" unicode="&#x18f;" horiz-adv-x="1613" 
d="M389 954l-215 271q118 113 265.5 175t346.5 62q215 0 386 -95.5t266.5 -264.5t95.5 -381v-4q0 -152 -52.5 -288t-146 -237.5t-232.5 -161t-302 -59.5q-171 0 -309 60.5t-227.5 167t-137 249t-47.5 308.5q0 38 4 104h1044q-36 120 -126 187t-222 67q-117 0 -208.5 -40
t-182.5 -120zM803 305q127 0 212 71.5t115 196.5h-647q18 -120 101.5 -194t218.5 -74z" />
    <glyph glyph-name="florin" unicode="&#x192;" horiz-adv-x="1132" 
d="M227 -20q-84 0 -174 20v283q60 -13 97 -13q66 0 96.5 29.5t42.5 103.5l47 273h-125v293h178l25 135q32 180 140 265t306 85q129 0 225 -27v-284q-88 18 -137 18q-72 0 -110 -31t-50 -100l-10 -61h234v-293h-287l-57 -324q-37 -203 -137.5 -287.5t-303.5 -84.5z" />
    <glyph glyph-name="Aringacute" unicode="&#x1fa;" horiz-adv-x="1628" 
d="M14 0l572 1358q-60 66 -60 160q0 109 84 182.5t205 73.5t205 -73.5t84 -182.5q0 -94 -62 -162l574 -1356h-426l-103 258h-555l-102 -258h-416zM655 1825l238 311l360 -117l-323 -194h-275zM649 567h322l-160 406zM815 1384q65 0 106.5 38t41.5 96q0 56 -41.5 94.5
t-106.5 38.5t-106 -38t-41 -95q0 -58 41 -96t106 -38z" />
    <glyph glyph-name="aringacute" unicode="&#x1fb;" horiz-adv-x="1226" 
d="M471 1802l229 328l351 -115l-310 -213h-270zM422 -25q-163 0 -267 91t-104 251v5q0 169 117 258.5t317 89.5q159 0 267 -43v18q0 182 -222 182q-151 0 -307 -61l-80 272q211 86 449 86q287 0 422 -135q119 -116 119 -352v-637h-383v117q-135 -142 -328 -142zM561 219
q87 0 141 49t54 133v52q-72 28 -154 28q-85 0 -131.5 -36.5t-46.5 -100.5v-4q0 -56 38 -88.5t99 -32.5zM621 1214q-111 0 -191 76.5t-80 184.5t80 184t191 76q114 0 193 -75.5t79 -184.5t-79 -185t-193 -76zM621 1333q60 0 100.5 41t40.5 101t-40.5 101.5t-100.5 41.5
t-100 -41.5t-40 -101.5t40 -101t100 -41z" />
    <glyph glyph-name="AEacute" unicode="&#x1fc;" horiz-adv-x="2177" 
d="M1110 1532l221 332l371 -113l-303 -219h-289zM-10 0l758 1434h1341v-336h-715v-219h643v-314h-643v-227h725v-338h-1112v258h-463l-133 -258h-401zM684 567h303v541h-24z" />
    <glyph glyph-name="aeacute" unicode="&#x1fd;" horiz-adv-x="1925" 
d="M807 1204l213 377l360 -117l-303 -260h-270zM461 -25q-114 0 -205.5 37.5t-148 116.5t-56.5 188v5q0 169 117 258.5t317 89.5q159 0 267 -43v18q0 182 -222 182q-151 0 -307 -61l-80 272q211 86 449 86q250 0 375 -125q144 134 348 134q134 0 240.5 -48.5t173 -133
t101 -193t34.5 -232.5q0 -26 -4 -80h-742q49 -182 240 -182q72 0 130 26.5t118 86.5l213 -178q-175 -226 -480 -226q-132 0 -243.5 44t-190.5 124q-222 -166 -444 -166zM1114 645h385q-11 93 -62 147t-130 54q-77 0 -128 -54t-65 -147zM567 223q108 0 224 90q-29 68 -37 140
q-72 28 -152 28q-85 0 -131.5 -36.5t-46.5 -100.5v-4q0 -54 40 -85.5t103 -31.5z" />
    <glyph glyph-name="Oslashacute" unicode="&#x1fe;" horiz-adv-x="1701" 
d="M1339 1444h301l-204 -232q188 -204 188 -491v-4q0 -152 -59.5 -290t-161.5 -238t-246 -159t-307 -59q-225 0 -406 107l-79 -88h-302l203 231q-186 201 -186 492v4q0 152 59.5 289.5t161.5 237.5t246 159t307 59q224 0 406 -106zM854 322q162 0 266.5 114.5t104.5 276.5v4
q0 112 -51 201l-488 -558q66 -38 168 -38zM479 721v-4q0 -111 49 -199l488 555q-74 39 -166 39q-163 0 -267 -114t-104 -277zM698 1552l222 332l370 -112l-303 -220h-289z" />
    <glyph glyph-name="oslashacute" unicode="&#x1ff;" horiz-adv-x="1343" 
d="M1042 1118h273l-172 -190q141 -160 141 -371v-4q0 -157 -79 -290t-220.5 -211.5t-314.5 -78.5q-168 0 -310 76l-57 -59h-272l170 186q-140 159 -140 373v4q0 118 46.5 224.5t127 184.5t195 124.5t244.5 46.5q168 0 311 -78zM422 557v-4q0 -67 20 -111l322 359
q-43 18 -94 18q-110 0 -179 -76t-69 -186zM674 287q111 0 179.5 77t68.5 185v4q0 57 -21 106l-319 -358q38 -14 92 -14zM522 1212l213 377l361 -116l-303 -261h-271z" />
    <glyph glyph-name="Scommaaccent" unicode="&#x218;" horiz-adv-x="1335" 
d="M506 -641l-17 117q89 7 126 39.5t32 93.5h-139v278h332v-227q0 -155 -84 -225t-250 -76zM690 -25q-194 0 -366 60.5t-306 177.5l222 264q217 -172 465 -172q165 0 165 98v5q0 46 -48.5 74.5t-194.5 64.5q-73 17 -126 31.5t-113 36t-102 45t-82 57t-64.5 73t-39 91.5
t-14.5 114v4q0 204 150.5 331.5t404.5 127.5q353 0 590 -190l-199 -281q-192 141 -401 141q-70 0 -107 -25t-37 -67v-4q0 -33 20.5 -55t74.5 -42t155 -42q131 -29 223 -63.5t165 -86t109 -125.5t36 -172v-4q0 -217 -158 -342t-422 -125z" />
    <glyph glyph-name="scommaaccent" unicode="&#x219;" horiz-adv-x="1052" 
d="M367 -635l-17 117q89 7 126 39.5t32 93.5h-139v279h331v-228q0 -155 -83.5 -225t-249.5 -76zM545 -25q-296 0 -522 166l145 234q195 -127 379 -127q100 0 100 59v4q0 35 -58 59q-29 12 -122 38q-92 23 -155.5 48t-121.5 65t-87 99.5t-29 139.5v4q0 172 124 269t320 97
q254 0 457 -129l-133 -245q-85 49 -173 76.5t-155 27.5q-43 0 -66.5 -15t-23.5 -40v-4q0 -30 39.5 -49t140.5 -50q73 -20 126 -39t106 -48.5t86.5 -65t54 -86t20.5 -113.5v-4q0 -179 -122 -275t-330 -96z" />
    <glyph glyph-name="schwa" unicode="&#x259;" horiz-adv-x="1241" 
d="M586 1135q262 0 428 -159.5t166 -414.5v-4q0 -120 -41.5 -227.5t-114.5 -185.5t-177.5 -123.5t-225.5 -45.5q-139 0 -247.5 49t-175 134t-101 193t-34.5 233q0 40 3 80h741q-23 90 -85 136t-155 46q-71 0 -127.5 -27t-117.5 -88l-216 178q175 226 480 226zM813 463h-387
q11 -92 63.5 -146.5t131.5 -54.5q76 0 125 53t67 148z" />
    <glyph glyph-name="circumflex" unicode="&#x2c6;" horiz-adv-x="1024" 
d="M92 1204l262 336h316l262 -336h-250l-172 125l-172 -125h-246z" />
    <glyph glyph-name="caron" unicode="&#x2c7;" horiz-adv-x="1024" 
d="M932 1540l-262 -336h-316l-262 336h250l172 -125l172 125h246z" />
    <glyph glyph-name="breve" unicode="&#x2d8;" horiz-adv-x="1024" 
d="M512 1200q-173 0 -279.5 88.5t-123.5 251.5h227q20 -58 61 -88.5t115 -30.5t115 30.5t61 88.5h227q-13 -162 -121 -251t-282 -89z" />
    <glyph glyph-name="dotaccent" unicode="&#x2d9;" horiz-adv-x="1024" 
d="M342 1204v291h342v-291h-342z" />
    <glyph glyph-name="ring" unicode="&#x2da;" horiz-adv-x="1024" 
d="M512 1206q-111 0 -190.5 76t-79.5 184t79.5 184t190.5 76q114 0 193 -75.5t79 -184.5t-79 -184.5t-193 -75.5zM512 1325q60 0 100.5 40.5t40.5 100.5t-40.5 102t-100.5 42t-99.5 -41.5t-39.5 -102.5q0 -60 39.5 -100.5t99.5 -40.5z" />
    <glyph glyph-name="ogonek" unicode="&#x2db;" horiz-adv-x="1024" 
d="M764 -170v-166q-57 -8 -121 -8q-145 0 -228 49t-83 129q0 89 102 186h248q-66 -66 -66 -116q0 -83 148 -74z" />
    <glyph glyph-name="tilde" unicode="&#x2dc;" horiz-adv-x="1024" 
d="M690 1204q-87 0 -190 43q-88 37 -129 37t-62 -21.5t-43 -74.5l-186 51q36 159 94.5 232t159.5 73q84 0 192 -45q11 -4 37 -12.5t37 -12t26.5 -7t26.5 -3.5q40 0 61.5 21.5t43.5 73.5l186 -52q-33 -158 -92 -230.5t-162 -72.5z" />
    <glyph glyph-name="hungarumlaut" unicode="&#x2dd;" horiz-adv-x="1024" 
d="M57 1204l199 379l334 -115l61 113l342 -117l-295 -260h-247l131 248l-277 -248h-248z" />
    <glyph glyph-name="commaaccent" unicode="&#x326;" horiz-adv-x="1024" 
d="M344 -629l-16 117q89 7 125.5 39.5t31.5 93.5h-139v279h332v-228q0 -155 -84 -225t-250 -76z" />
    <glyph glyph-name="uni0384" unicode="&#x384;" horiz-adv-x="1024" 
d="M305 1204l125 391l348 -114l-227 -277h-246z" />
    <glyph glyph-name="uni0385" unicode="&#x385;" horiz-adv-x="1024" 
d="M723 1204v289h291v-289h-291zM10 1204v289h291v-289h-291zM352 1204l80 449l293 -68l-174 -381h-199z" />
    <glyph glyph-name="uni0386" unicode="&#x386;" horiz-adv-x="1628" 
d="M14 0l609 1444h383l610 -1444h-426l-103 258h-555l-102 -258h-416zM649 567h322l-160 406zM23 985l22 449h356l-176 -449h-202z" />
    <glyph glyph-name="uni0387" unicode="&#x387;" horiz-adv-x="600" 
d="M98 709v399h404v-399h-404z" />
    <glyph glyph-name="uni0388" unicode="&#x388;" horiz-adv-x="1368" 
d="M-311 985l22 449h357l-177 -449h-202zM127 0v1434h1153v-336h-760v-219h688v-314h-688v-227h770v-338h-1163z" />
    <glyph glyph-name="uni0389" unicode="&#x389;" horiz-adv-x="1558" 
d="M127 0v1434h397v-537h510v537h398v-1434h-398v545h-510v-545h-397zM-311 985l22 449h357l-177 -449h-202z" />
    <glyph glyph-name="uni038A" unicode="&#x38a;" horiz-adv-x="669" 
d="M137 0v1434h398v-1434h-398zM-305 985l22 449h357l-176 -449h-203z" />
    <glyph glyph-name="uni038C" unicode="&#x38c;" horiz-adv-x="1701" 
d="M-227 985l22 449h357l-177 -449h-202zM850 -29q-163 0 -306.5 58.5t-245 158.5t-160 236.5t-58.5 288.5v4q0 152 59.5 289.5t161.5 237.5t246 159t307 59q217 0 394 -99.5t276.5 -269t99.5 -372.5v-4q0 -152 -59.5 -290t-161.5 -238t-246 -159t-307 -59zM854 330
q159 0 261 112t102 271v4q0 161 -103 274t-264 113t-263 -112t-102 -271v-4q0 -158 104.5 -272.5t264.5 -114.5z" />
    <glyph glyph-name="uni038E" unicode="&#x38e;" horiz-adv-x="1480" 
d="M543 0v537l-547 897h453l294 -523l297 523h445l-545 -891v-543h-397zM-399 985l22 449h357l-177 -449h-202z" />
    <glyph glyph-name="uni038F" unicode="&#x38f;" horiz-adv-x="1736" 
d="M872 1462q175 0 318.5 -51t237.5 -139.5t145 -206t51 -252.5v-2q0 -294 -270 -494l303 2v-319h-682v315q77 57 127 112t83.5 137t33.5 181v3q0 157 -94.5 256.5t-256.5 99.5q-161 0 -254.5 -99t-93.5 -257v-3q0 -140 62 -242.5t180 -187.5v-315h-680v319l299 -2
q-82 63 -137.5 127t-93 159.5t-37.5 209.5v2q0 130 52.5 247t147.5 206t240 141.5t319 52.5zM-225 985l22 449h357l-177 -449h-202z" />
    <glyph glyph-name="uni0390" unicode="&#x390;" horiz-adv-x="702" 
d="M520 1204v289h291v-289h-291zM-193 1204v289h291v-289h-291zM150 1204l79 449l293 -68l-174 -381h-198zM100 362v746h389v-705q0 -60 27 -86t84 -26q30 0 68 6v-281q-102 -32 -215 -32q-181 0 -267 90.5t-86 287.5z" />
    <glyph glyph-name="uni0391" unicode="&#x391;" horiz-adv-x="1628" 
d="M14 0l609 1444h383l610 -1444h-426l-103 258h-555l-102 -258h-416zM649 567h322l-160 406z" />
    <glyph glyph-name="uni0392" unicode="&#x392;" horiz-adv-x="1464" 
d="M127 0v1434h735q261 0 391 -127q93 -96 93 -234v-4q0 -224 -222 -319q139 -45 212 -128.5t73 -222.5v-4q0 -186 -143 -290.5t-400 -104.5h-739zM954 987v4q0 123 -180 123h-260v-252h250q190 0 190 125zM1012 451v4q0 62 -48.5 95.5t-146.5 33.5h-303v-265h307
q92 0 141.5 34.5t49.5 97.5z" />
    <glyph glyph-name="uni0393" unicode="&#x393;" horiz-adv-x="1263" 
d="M127 0v1434h1092v-344h-695v-1090h-397z" />
    <glyph glyph-name="uni0394" unicode="&#x394;" horiz-adv-x="1613" 
d="M98 0l-45 301l539 1143h430l539 -1143l-45 -301h-1418zM494 344h614l-305 705z" />
    <glyph glyph-name="uni0395" unicode="&#x395;" horiz-adv-x="1368" 
d="M127 0v1434h1153v-336h-760v-219h688v-314h-688v-227h770v-338h-1163z" />
    <glyph glyph-name="uni0396" unicode="&#x396;" horiz-adv-x="1429" 
d="M84 0v289l719 811h-694v334h1241v-287l-719 -811h719v-336h-1266z" />
    <glyph glyph-name="uni0397" unicode="&#x397;" horiz-adv-x="1558" 
d="M127 0v1434h397v-537h510v537h398v-1434h-398v545h-510v-545h-397z" />
    <glyph glyph-name="uni0398" unicode="&#x398;" horiz-adv-x="1705" 
d="M852 -29q-163 0 -307.5 58.5t-246 158.5t-160 236.5t-58.5 288.5v4q0 152 59.5 289.5t161.5 237.5t247 159t308 59q217 0 394.5 -99.5t277.5 -269t100 -372.5v-4q0 -152 -59.5 -290t-162 -238t-247 -159t-307.5 -59zM856 324q174 0 277.5 110t103.5 279v4
q0 172 -105 283.5t-280 111.5q-174 0 -278.5 -110.5t-104.5 -280.5v-4q0 -171 106.5 -282t280.5 -111zM1100 868v-293h-494v293h494z" />
    <glyph glyph-name="uni0399" unicode="&#x399;" horiz-adv-x="669" 
d="M137 0v1434h398v-1434h-398z" />
    <glyph glyph-name="uni039A" unicode="&#x39a;" horiz-adv-x="1495" 
d="M127 0v1434h397v-582l494 582h471l-543 -615l561 -819h-475l-362 532l-146 -159v-373h-397z" />
    <glyph glyph-name="uni039B" unicode="&#x39b;" horiz-adv-x="1589" 
d="M977 1444l600 -1444h-440l-346 895l-347 -895h-430l598 1444h365z" />
    <glyph glyph-name="uni039C" unicode="&#x39c;" horiz-adv-x="1777" 
d="M127 0v1434h420l342 -555l342 555h420v-1434h-396v823l-366 -561h-8l-365 559v-821h-389z" />
    <glyph glyph-name="uni039D" unicode="&#x39d;" horiz-adv-x="1607" 
d="M127 0v1434h371l589 -758v758h394v-1434h-346l-615 786v-786h-393z" />
    <glyph glyph-name="uni039E" unicode="&#x39e;" horiz-adv-x="1353" 
d="M1266 1096h-1178v338h1178v-338zM1219 565h-1084v316h1084v-316zM1276 0h-1198v340h1198v-340z" />
    <glyph glyph-name="uni039F" unicode="&#x39f;" horiz-adv-x="1701" 
d="M850 -29q-163 0 -306.5 58.5t-245 158.5t-160 236.5t-58.5 288.5v4q0 152 59.5 289.5t161.5 237.5t246 159t307 59q217 0 394 -99.5t276.5 -269t99.5 -372.5v-4q0 -152 -59.5 -290t-161.5 -238t-246 -159t-307 -59zM854 330q159 0 261 112t102 271v4q0 161 -103 274
t-264 113t-263 -112t-102 -271v-4q0 -158 104.5 -272.5t264.5 -114.5z" />
    <glyph glyph-name="uni03A0" unicode="&#x3a0;" horiz-adv-x="1550" 
d="M127 0v1434h1296v-1434h-397v1081h-502v-1081h-397z" />
    <glyph glyph-name="uni03A1" unicode="&#x3a1;" horiz-adv-x="1378" 
d="M127 0v1434h616q273 0 433.5 -133.5t160.5 -368.5v-4q0 -166 -80.5 -284.5t-217.5 -176t-316 -57.5h-199v-410h-397zM524 721h191q104 0 165.5 51t61.5 137v4q0 91 -60.5 139t-168.5 48h-189v-379z" />
    <glyph glyph-name="uni03A3" unicode="&#x3a3;" horiz-adv-x="1402" 
d="M1036 717l-405 -383l694 2v-336h-1239v285l455 430l-449 434v285h1223v-334l-678 2z" />
    <glyph glyph-name="uni03A4" unicode="&#x3a4;" horiz-adv-x="1351" 
d="M477 0v1085h-428v349h1256v-349h-431v-1085h-397z" />
    <glyph glyph-name="uni03A5" unicode="&#x3a5;" horiz-adv-x="1480" 
d="M543 0v537l-547 897h453l294 -523l297 523h445l-545 -891v-543h-397z" />
    <glyph glyph-name="uni03A6" unicode="&#x3a6;" horiz-adv-x="2031" 
d="M817 -27v138q-175 2 -315.5 47.5t-234.5 125t-144.5 190t-50.5 243.5v2q0 131 50 241t143.5 190.5t234.5 126.5t317 50v133h397v-133q351 -7 548.5 -171t197.5 -435v-2q0 -130 -50.5 -240.5t-144.5 -191.5t-235.5 -127.5t-315.5 -48.5v-138h-397zM471 721v-2
q0 -124 89 -201.5t267 -77.5v559h-2q-175 0 -264.5 -78.5t-89.5 -199.5zM1206 999v-559q177 0 266 78.5t89 200.5v2q0 122 -89.5 200t-265.5 78z" />
    <glyph glyph-name="uni03A7" unicode="&#x3a7;" horiz-adv-x="1499" 
d="M1010 1434h446l-471 -699l492 -735h-457l-275 434l-276 -434h-446l491 729l-471 705h457l252 -404z" />
    <glyph glyph-name="uni03A8" unicode="&#x3a8;" horiz-adv-x="1847" 
d="M1749 1434v-502q0 -303 -161 -467.5t-462 -185.5v-279h-405v279q-302 19 -461.5 182t-159.5 463v510h394v-502q0 -142 56.5 -210t180.5 -79v791h385v-791q125 11 182.5 77.5t57.5 205.5v508h393z" />
    <glyph glyph-name="uni03A9" unicode="&#x3a9;" horiz-adv-x="1736" 
d="M872 1462q175 0 318.5 -51t237.5 -139.5t145 -206t51 -252.5v-2q0 -294 -270 -494l303 2v-319h-682v315q77 57 127 112t83.5 137t33.5 181v3q0 157 -94.5 256.5t-256.5 99.5q-161 0 -254.5 -99t-93.5 -257v-3q0 -140 62 -242.5t180 -187.5v-315h-680v319l299 -2
q-82 63 -137.5 127t-93 159.5t-37.5 209.5v2q0 130 52.5 247t147.5 206t240 141.5t319 52.5z" />
    <glyph glyph-name="uni03AA" unicode="&#x3aa;" horiz-adv-x="669" 
d="M137 0v1434h398v-1434h-398zM395 1532v283h338v-283h-338zM-57 1532v283h338v-283h-338z" />
    <glyph glyph-name="uni03AB" unicode="&#x3ab;" horiz-adv-x="1480" 
d="M543 0v537l-547 897h453l294 -523l297 523h445l-545 -891v-543h-397zM797 1532v283h338v-283h-338zM344 1532v283h338v-283h-338z" />
    <glyph glyph-name="uni03AC" unicode="&#x3ac;" horiz-adv-x="1492" 
d="M606 1212l125 392l348 -115l-227 -277h-246zM1458 297v-281q-112 -32 -207 -32q-235 0 -305 174q-133 -183 -373 -183q-107 0 -200 40.5t-162 113.5t-108.5 181.5t-39.5 238.5v4q0 131 39.5 241.5t107 184t156.5 114t187 40.5q201 0 338 -160v135h389v-705q0 -60 27 -86
t84 -26q29 0 67 6zM672 301q96 0 161.5 71.5t65.5 180.5v4q0 109 -65.5 180.5t-161.5 71.5q-94 0 -161 -72t-67 -180v-4q0 -108 67 -180t161 -72z" />
    <glyph glyph-name="uni03AD" unicode="&#x3ad;" horiz-adv-x="1193" 
d="M477 1212l125 392l348 -115l-227 -277h-246zM864 436h-264q-154 0 -154 -80v-2q0 -86 175 -86q199 0 409 101l121 -256q-248 -138 -549 -138q-261 0 -400 87t-139 241v2q0 175 209 254q-188 72 -188 240v2q0 148 137 238.5t402 90.5q301 0 520 -129l-135 -262
q-74 44 -173 71.5t-194 27.5q-87 0 -130.5 -22.5t-43.5 -59.5v-2q0 -42 33.5 -61t107.5 -19h256v-238z" />
    <glyph glyph-name="uni03AE" unicode="&#x3ae;" horiz-adv-x="1298" 
d="M524 1212l125 392l348 -115l-227 -277h-246zM494 0h-390v1108h390v-156q142 181 331 181q178 0 277.5 -108.5t99.5 -299.5v-1053h-387v928q0 91 -42.5 139.5t-115.5 48.5q-74 0 -118.5 -49t-44.5 -139v-600z" />
    <glyph glyph-name="uni03AF" unicode="&#x3af;" horiz-adv-x="702" 
d="M180 1204l125 391l348 -114l-227 -277h-246zM100 362v746h389v-705q0 -60 27 -86t84 -26q30 0 68 6v-281q-102 -32 -215 -32q-181 0 -267 90.5t-86 287.5z" />
    <glyph glyph-name="uni03B0" unicode="&#x3b0;" horiz-adv-x="1298" 
d="M858 1204v289h291v-289h-291zM145 1204v289h291v-289h-291zM487 1204l80 449l293 -68l-174 -381h-199zM647 -27q-261 0 -408 130t-147 386v619h389v-606q0 -195 168 -195t168 191v610h389v-612q0 -262 -148.5 -392.5t-410.5 -130.5z" />
    <glyph glyph-name="uni03B1" unicode="&#x3b1;" horiz-adv-x="1492" 
d="M1458 297v-281q-112 -32 -207 -32q-235 0 -305 174q-133 -183 -373 -183q-107 0 -200 40.5t-162 113.5t-108.5 181.5t-39.5 238.5v4q0 131 39.5 241.5t107 184t156.5 114t187 40.5q201 0 338 -160v135h389v-705q0 -60 27 -86t84 -26q29 0 67 6zM672 301q96 0 161.5 71.5
t65.5 180.5v4q0 109 -65.5 180.5t-161.5 71.5q-94 0 -161 -72t-67 -180v-4q0 -108 67 -180t161 -72z" />
    <glyph glyph-name="uni03B2" unicode="&#x3b2;" horiz-adv-x="1366" 
d="M866 -20q-239 0 -379 161v-469h-383v1246q0 282 156.5 438.5t452.5 156.5q131 0 236 -33.5t171.5 -91t101.5 -133t35 -161.5v-2q0 -266 -249 -349q147 -43 224 -128.5t77 -227.5v-2q0 -181 -122 -293t-321 -112zM743 293q89 0 136 42t47 111v3q0 79 -66.5 123.5
t-206.5 43.5h-170v-24q0 -153 69 -226t191 -73zM483 930v-70h160q116 0 179 47.5t63 132.5v2q0 67 -47 112t-133 44q-109 0 -165.5 -70.5t-56.5 -197.5z" />
    <glyph glyph-name="uni03B3" unicode="&#x3b3;" horiz-adv-x="1280" 
d="M834 -328h-388v359l-426 1077h410l213 -647l213 647h404l-426 -1077v-359z" />
    <glyph glyph-name="uni03B4" unicode="&#x3b4;" horiz-adv-x="1331" 
d="M217 1227v268h926v-299l-404 8l150 -104q197 -137 288 -268t91 -306v-2q0 -239 -167 -395t-439 -156q-264 0 -432.5 153t-168.5 392v2q0 170 86.5 294t280.5 241zM891 526v2q0 85 -45 156t-166 172q-134 -84 -190 -161t-56 -167v-2q0 -96 64 -163.5t164 -67.5t164.5 68
t64.5 163z" />
    <glyph glyph-name="uni03B5" unicode="&#x3b5;" horiz-adv-x="1193" 
d="M864 436h-264q-154 0 -154 -80v-2q0 -86 175 -86q199 0 409 101l121 -256q-248 -138 -549 -138q-261 0 -400 87t-139 241v2q0 175 209 254q-188 72 -188 240v2q0 148 137 238.5t402 90.5q301 0 520 -129l-135 -262q-74 44 -173 71.5t-194 27.5q-87 0 -130.5 -22.5
t-43.5 -59.5v-2q0 -42 33.5 -61t107.5 -19h256v-238z" />
    <glyph glyph-name="uni03B6" unicode="&#x3b6;" horiz-adv-x="1153" 
d="M1092 256v-537h-357v248l-157 23q-268 39 -394.5 142t-126.5 290v2q0 126 53 226.5t181 228.5l303 307h-457v309h950v-287l-550 -559q-53 -56 -74 -94t-21 -84v-2q0 -123 197 -147z" />
    <glyph glyph-name="uni03B7" unicode="&#x3b7;" horiz-adv-x="1298" 
d="M494 0h-390v1108h390v-156q142 181 331 181q178 0 277.5 -108.5t99.5 -299.5v-1053h-387v928q0 91 -42.5 139.5t-115.5 48.5q-74 0 -118.5 -49t-44.5 -139v-600z" />
    <glyph glyph-name="uni03B8" unicode="&#x3b8;" horiz-adv-x="1370" 
d="M682 -27q-274 0 -440 204t-166 538v53q0 333 168 537t444 204q182 0 319.5 -92t212 -259.5t74.5 -387.5v-53q0 -220 -75.5 -389t-215 -262t-321.5 -93zM686 291q104 0 168 79.5t74 231.5h-486q12 -153 75 -232t169 -79zM684 1194q-102 0 -166 -78t-76 -227h484
q-12 150 -76 227.5t-166 77.5z" />
    <glyph glyph-name="uni03B9" unicode="&#x3b9;" horiz-adv-x="702" 
d="M100 362v746h389v-705q0 -60 27 -86t84 -26q30 0 68 6v-281q-102 -32 -215 -32q-181 0 -267 90.5t-86 287.5z" />
    <glyph glyph-name="uni03BA" unicode="&#x3ba;" horiz-adv-x="1249" 
d="M494 1108v-399l315 399h446l-391 -467l393 -641h-434l-215 365l-114 -136v-229h-390v1108h390z" />
    <glyph glyph-name="uni03BB" unicode="&#x3bb;" horiz-adv-x="1302" 
d="M424 0h-399l446 1067l-14 41q-19 45 -52.5 65.5t-89.5 20.5q-65 0 -135 -23v304q98 34 223 34q170 0 265.5 -73t162.5 -248l457 -1188h-403l-228 657z" />
    <glyph glyph-name="uni03BC" unicode="&#x3bc;" horiz-adv-x="1429" 
d="M1395 297v-281q-84 -32 -199 -32q-216 0 -287 153q-77 -147 -227 -147q-77 0 -140 36t-98 111h-6q17 -65 24.5 -96.5t14 -81t6.5 -102.5v-185h-379v1436h390v-608q0 -91 43.5 -140t119.5 -49q79 0 125.5 49t46.5 140v608h388v-717q4 -55 29.5 -77.5t80.5 -22.5q43 0 68 6
z" />
    <glyph glyph-name="uni03BD" unicode="&#x3bd;" horiz-adv-x="1280" 
d="M463 -8l-443 1116h410l213 -647l215 647h402l-443 -1116h-354z" />
    <glyph glyph-name="uni03BE" unicode="&#x3be;" horiz-adv-x="1159" 
d="M1174 1335l-199 -270q-73 60 -139.5 90.5t-147.5 30.5q-88 0 -137 -43t-49 -111v-2q0 -74 61 -116.5t170 -41.5h201v-286h-270q-106 0 -162 -36t-56 -99v-2q0 -113 185 -136l448 -61v-533h-356v248l-152 21q-262 39 -386 135.5t-124 275.5v2q0 253 281 342
q-104 51 -160.5 131.5t-56.5 208.5v2q0 187 147.5 307.5t403.5 120.5q293 0 498 -178z" />
    <glyph glyph-name="uni03BF" unicode="&#x3bf;" horiz-adv-x="1343" 
d="M670 -27q-129 0 -243 45.5t-194 123t-126 183.5t-46 224v4q0 118 46.5 224.5t127 184.5t195 124.5t244.5 46.5q173 0 313.5 -78t218.5 -210t78 -288v-4q0 -157 -79 -290t-220.5 -211.5t-314.5 -78.5zM674 303q103 0 168 71.5t65 174.5v4q0 105 -67 178.5t-170 73.5
q-104 0 -168 -71.5t-64 -176.5v-4q0 -103 67.5 -176.5t168.5 -73.5z" />
    <glyph glyph-name="uni03C0" unicode="&#x3c0;" horiz-adv-x="1536" 
d="M899 362v416h-293v-778h-387v778h-174v330h1421v-330h-178v-375q0 -60 27 -86t84 -26q29 0 67 6v-281q-102 -32 -215 -32q-181 0 -266.5 90.5t-85.5 287.5z" />
    <glyph glyph-name="uni03C1" unicode="&#x3c1;" horiz-adv-x="1370" 
d="M92 -328v826q0 295 161.5 465t448.5 170q178 0 316.5 -75t213.5 -207.5t75 -301.5v-2q0 -123 -40 -230.5t-107 -182t-156 -117t-187 -42.5q-118 0 -197 42.5t-141 117.5v-463h-387zM698 301q98 0 163 70.5t65 181.5v4q0 109 -66 180.5t-162 71.5q-95 0 -160 -71.5
t-65 -180.5v-4q0 -109 65 -180.5t160 -71.5z" />
    <glyph glyph-name="uni03C2" unicode="&#x3c2;" horiz-adv-x="1171" 
d="M735 -281v254l-114 17q-560 84 -560 569v2q0 117 42.5 221.5t118 181.5t186.5 121.5t241 44.5q170 0 286 -63t198 -186l-261 -205q-96 129 -219 129q-96 0 -155.5 -67.5t-59.5 -164.5v-2q0 -120 78 -182.5t242 -83.5l334 -47v-539h-357z" />
    <glyph glyph-name="uni03C3" unicode="&#x3c3;" horiz-adv-x="1417" 
d="M668 -27q-176 0 -315.5 76t-215.5 205.5t-76 288.5v2q0 117 46 220.5t128 179t202.5 119.5t262.5 44h678v-311l-272 4q158 -119 158 -309v-3q0 -102 -43.5 -196t-120 -165t-189 -113t-243.5 -42zM668 303q105 0 165 66t60 168v2q0 104 -61 172.5t-168 68.5
q-103 0 -164.5 -68.5t-61.5 -168.5v-2q0 -104 63.5 -171t166.5 -67z" />
    <glyph glyph-name="uni03C4" unicode="&#x3c4;" horiz-adv-x="1206" 
d="M1145 778h-363v-350q0 -76 33 -107.5t107 -31.5q63 0 131 14v-283q-133 -38 -250 -38q-207 0 -308.5 97.5t-101.5 305.5v393h-342v330h1094v-330z" />
    <glyph glyph-name="uni03C5" unicode="&#x3c5;" horiz-adv-x="1298" 
d="M647 -27q-261 0 -408 130t-147 386v619h389v-606q0 -195 168 -195t168 191v610h389v-612q0 -262 -148.5 -392.5t-410.5 -130.5z" />
    <glyph glyph-name="uni03C6" unicode="&#x3c6;" horiz-adv-x="1802" 
d="M1092 -328h-381v324q-302 12 -476 166t-174 389v2q0 235 174.5 391t475.5 168v383h381v-383q302 -12 475.5 -166t173.5 -389v-2q0 -235 -174 -391t-475 -168v-324zM1370 553v2q0 108 -78.5 172.5t-214.5 69.5v-486q139 1 216 66.5t77 175.5zM434 559v-2q0 -110 78 -175.5
t213 -70.5v486q-139 -4 -215 -67.5t-76 -170.5z" />
    <glyph glyph-name="uni03C7" unicode="&#x3c7;" horiz-adv-x="1312" 
d="M453 1108l206 -385l209 385h418l-412 -690l449 -746h-428l-242 445l-243 -445h-420l450 744l-415 692h428z" />
    <glyph glyph-name="uni03C8" unicode="&#x3c8;" horiz-adv-x="1771" 
d="M1077 -328h-381v322q-289 4 -446.5 155.5t-157.5 405.5v553h385v-541q0 -113 58.5 -173.5t164.5 -65.5v1167h371v-1167q106 5 164.5 65.5t58.5 171.5v543h385v-549q0 -262 -157.5 -409.5t-444.5 -155.5v-322z" />
    <glyph glyph-name="uni03C9" unicode="&#x3c9;" horiz-adv-x="1867" 
d="M745 905h377v-348q0 -123 41.5 -180.5t108.5 -57.5q147 0 147 232v2q0 129 -59 261.5t-189 293.5h410q108 -132 163.5 -265t55.5 -302v-2q0 -259 -124.5 -409t-344.5 -150q-275 0 -397 270q-60 -130 -156 -200t-241 -70q-221 0 -344 148t-123 411v2q0 305 217 567h407
q-130 -162 -186.5 -292t-56.5 -263v-2q0 -117 37.5 -175.5t107.5 -56.5q67 0 108 57t41 179v350z" />
    <glyph glyph-name="uni03CA" unicode="&#x3ca;" horiz-adv-x="702" 
d="M358 1204v291h332v-291h-332zM-70 1204v291h330v-291h-330zM100 362v746h389v-705q0 -60 27 -86t84 -26q30 0 68 6v-281q-102 -32 -215 -32q-181 0 -267 90.5t-86 287.5z" />
    <glyph glyph-name="uni03CB" unicode="&#x3cb;" horiz-adv-x="1298" 
d="M696 1204v291h332v-291h-332zM268 1204v291h330v-291h-330zM647 -27q-261 0 -408 130t-147 386v619h389v-606q0 -195 168 -195t168 191v610h389v-612q0 -262 -148.5 -392.5t-410.5 -130.5z" />
    <glyph glyph-name="uni03CC" unicode="&#x3cc;" horiz-adv-x="1343" 
d="M543 1212l125 392l348 -115l-228 -277h-245zM670 -27q-129 0 -243 45.5t-194 123t-126 183.5t-46 224v4q0 118 46.5 224.5t127 184.5t195 124.5t244.5 46.5q173 0 313.5 -78t218.5 -210t78 -288v-4q0 -157 -79 -290t-220.5 -211.5t-314.5 -78.5zM674 303q103 0 168 71.5
t65 174.5v4q0 105 -67 178.5t-170 73.5q-104 0 -168 -71.5t-64 -176.5v-4q0 -103 67.5 -176.5t168.5 -73.5z" />
    <glyph glyph-name="uni03CD" unicode="&#x3cd;" horiz-adv-x="1298" 
d="M520 1204l125 391l348 -114l-227 -277h-246zM647 -27q-261 0 -408 130t-147 386v619h389v-606q0 -195 168 -195t168 191v610h389v-612q0 -262 -148.5 -392.5t-410.5 -130.5z" />
    <glyph glyph-name="uni03CE" unicode="&#x3ce;" horiz-adv-x="1867" 
d="M805 1204l125 391l348 -114l-227 -277h-246zM745 905h377v-348q0 -123 41.5 -180.5t108.5 -57.5q147 0 147 232v2q0 129 -59 261.5t-189 293.5h410q108 -132 163.5 -265t55.5 -302v-2q0 -259 -124.5 -409t-344.5 -150q-275 0 -397 270q-60 -130 -156 -200t-241 -70
q-221 0 -344 148t-123 411v2q0 305 217 567h407q-130 -162 -186.5 -292t-56.5 -263v-2q0 -117 37.5 -175.5t107.5 -56.5q67 0 108 57t41 179v350z" />
    <glyph glyph-name="uni0400" unicode="&#x400;" horiz-adv-x="1368" 
d="M862 1532h-291l-303 219l371 113zM127 0v1434h1153v-336h-760v-219h688v-314h-688v-227h770v-338h-1163z" />
    <glyph glyph-name="uni0401" unicode="&#x401;" horiz-adv-x="1368" 
d="M764 1532v283h338v-283h-338zM311 1532v283h338v-283h-338zM127 0v1434h1153v-336h-760v-219h688v-314h-688v-227h770v-338h-1163z" />
    <glyph glyph-name="uni0402" unicode="&#x402;" horiz-adv-x="1730" 
d="M1274 1434v-342h-428v-213q126 20 264 20q279 0 423 -114.5t144 -331.5v-2q0 -218 -143 -337t-410 -118q-57 0 -71 2v297h28q103 0 156 36t53 101v2q0 140 -221 137q-111 0 -223 -14v-557h-395v1092h-402v342h1225z" />
    <glyph glyph-name="uni0403" unicode="&#x403;" horiz-adv-x="1263" 
d="M504 1532l221 332l371 -113l-303 -219h-289zM127 0v1434h1092v-344h-695v-1090h-397z" />
    <glyph glyph-name="uni0404" unicode="&#x404;" horiz-adv-x="1488" 
d="M829 -29q-167 0 -308 57.5t-237 157t-150 235.5t-54 292v6q0 153 54.5 289t152 236.5t241.5 159t314 58.5q192 0 327.5 -50.5t255.5 -149.5l-204 -297q-85 72 -174 109.5t-199 37.5q-132 0 -229.5 -64t-133.5 -180l598 4v-303l-602 4q35 -119 131.5 -185t235.5 -66
q111 0 200 39t185 116l207 -276q-138 -115 -282.5 -172.5t-328.5 -57.5z" />
    <glyph glyph-name="uni0405" unicode="&#x405;" horiz-adv-x="1335" 
d="M690 -25q-194 0 -366 60.5t-306 177.5l222 264q217 -172 465 -172q165 0 165 98v5q0 46 -48.5 74.5t-194.5 64.5q-73 17 -126 31.5t-113 36t-102 45t-82 57t-64.5 73t-39 91.5t-14.5 114v4q0 204 150.5 331.5t404.5 127.5q353 0 590 -190l-199 -281q-192 141 -401 141
q-70 0 -107 -25t-37 -67v-4q0 -33 20.5 -55t74.5 -42t155 -42q131 -29 223 -63.5t165 -86t109 -125.5t36 -172v-4q0 -217 -158 -342t-422 -125z" />
    <glyph glyph-name="uni0406" unicode="&#x406;" horiz-adv-x="669" 
d="M137 0v1434h398v-1434h-398z" />
    <glyph glyph-name="uni0407" unicode="&#x407;" horiz-adv-x="669" 
d="M137 0v1434h398v-1434h-398zM395 1532v283h338v-283h-338zM-57 1532v283h338v-283h-338z" />
    <glyph glyph-name="uni0408" unicode="&#x408;" horiz-adv-x="1155" 
d="M512 -25q-177 0 -297.5 64t-206.5 178l256 242q58 -68 109.5 -100.5t115.5 -32.5q75 0 118.5 51t43.5 149v908h396v-910q0 -261 -142 -403q-146 -146 -393 -146z" />
    <glyph glyph-name="uni0409" unicode="&#x409;" horiz-adv-x="2220" 
d="M977 0v1116h-10l-576 -1116h-401l758 1434h626v-428h195q279 0 440.5 -127t161.5 -367v-2q0 -239 -163.5 -374.5t-451.5 -135.5h-579zM1374 334h172q107 0 168.5 46.5t61.5 135.5v2q0 86 -58.5 131t-169.5 45h-174v-360z" />
    <glyph glyph-name="uni040A" unicode="&#x40a;" horiz-adv-x="2258" 
d="M1016 0v545h-492v-545h-397v1434h397v-537h492v537h397v-428h195q279 0 440.5 -127t161.5 -367v-2q0 -239 -163.5 -374.5t-451.5 -135.5h-579zM1413 334h172q107 0 168.5 46.5t61.5 135.5v2q0 86 -58.5 131t-169.5 45h-174v-360z" />
    <glyph glyph-name="uni040B" unicode="&#x40b;" horiz-adv-x="1773" 
d="M1274 1434v-342h-428v-234q151 23 262 23q268 0 419.5 -130.5t151.5 -398.5v-352h-395v307q0 118 -55.5 171.5t-177.5 53.5q-111 0 -205 -20v-512h-395v1092h-402v342h1225z" />
    <glyph glyph-name="uni040C" unicode="&#x40c;" horiz-adv-x="1505" 
d="M600 1532l221 332l371 -113l-303 -219h-289zM127 0v1434h397l-2 -541h72l434 541h475l-596 -695l625 -739h-492l-446 549h-72l2 -549h-397z" />
    <glyph glyph-name="uni040D" unicode="&#x40d;" horiz-adv-x="1607" 
d="M958 1532h-290l-303 219l370 113zM1481 0h-398v817l-610 -817h-346v1434h397v-787l590 787h367v-1434z" />
    <glyph glyph-name="uni040E" unicode="&#x40e;" horiz-adv-x="1527" 
d="M778 1528q-173 0 -278 78.5t-125 230.5h235q20 -46 59 -69t109 -23q69 0 109 23t61 69h234q-20 -152 -125 -230.5t-279 -78.5zM739 0h-444l274 483l-553 951h453l319 -578l299 578h445z" />
    <glyph glyph-name="uni040F" unicode="&#x40f;" horiz-adv-x="1550" 
d="M592 -309v309h-465v1434h397v-1082h502v1082h397v-1434h-462v-309h-369z" />
    <glyph glyph-name="uni0410" unicode="&#x410;" horiz-adv-x="1628" 
d="M14 0l609 1444h383l610 -1444h-426l-103 258h-555l-102 -258h-416zM649 567h322l-160 406z" />
    <glyph glyph-name="uni0411" unicode="&#x411;" horiz-adv-x="1433" 
d="M127 0v1434h1133v-332h-746v-211h328q261 0 397.5 -110.5t136.5 -315.5v-4q0 -215 -142.5 -338t-418.5 -123h-688zM514 317h283q87 0 135.5 36.5t48.5 99.5v4q0 62 -46.5 95.5t-141.5 33.5h-279v-269z" />
    <glyph glyph-name="uni0412" unicode="&#x412;" horiz-adv-x="1464" 
d="M127 0v1434h735q261 0 391 -127q93 -96 93 -234v-4q0 -224 -222 -319q139 -45 212 -128.5t73 -222.5v-4q0 -186 -143 -290.5t-400 -104.5h-739zM954 987v4q0 123 -180 123h-260v-252h250q190 0 190 125zM1012 451v4q0 62 -48.5 95.5t-146.5 33.5h-303v-265h307
q92 0 141.5 34.5t49.5 97.5z" />
    <glyph glyph-name="uni0413" unicode="&#x413;" horiz-adv-x="1263" 
d="M127 0v1434h1092v-344h-695v-1090h-397z" />
    <glyph glyph-name="uni0414" unicode="&#x414;" horiz-adv-x="1818" 
d="M47 352h176l469 1092h436l467 -1092h179v-661h-369v309h-991v-309h-367v661zM905 1038l-276 -700h553z" />
    <glyph glyph-name="uni0415" unicode="&#x415;" horiz-adv-x="1368" 
d="M127 0v1434h1153v-336h-760v-219h688v-314h-688v-227h770v-338h-1163z" />
    <glyph glyph-name="uni0416" unicode="&#x416;" horiz-adv-x="2267" 
d="M20 1434h474l399 -543h49l-6 543h395l-6 -543h47l412 543h463l-559 -699l591 -735h-473l-430 553h-51l6 -553h-395l6 553h-59l-432 -553h-465l587 715z" />
    <glyph glyph-name="uni0417" unicode="&#x417;" horiz-adv-x="1388" 
d="M258 977l-188 276q136 101 287.5 155t349.5 54q277 0 429 -107t152 -288v-2q0 -126 -58.5 -201.5t-185.5 -128.5q137 -40 209 -115.5t72 -213.5v-3q0 -188 -168.5 -310t-472.5 -122q-364 0 -635 201l191 289q220 -152 442 -152q114 0 177 35t63 100v2q0 129 -228 129
h-295v293h297q96 0 145.5 34.5t49.5 96.5v2q0 60 -52.5 92.5t-150.5 32.5q-222 0 -430 -149z" />
    <glyph glyph-name="uni0418" unicode="&#x418;" horiz-adv-x="1607" 
d="M1481 0h-398v817l-610 -817h-346v1434h397v-787l590 787h367v-1434z" />
    <glyph glyph-name="uni0419" unicode="&#x419;" horiz-adv-x="1607" 
d="M805 1528q-173 0 -278.5 78.5t-125.5 230.5h236q20 -46 59 -69t109 -23q69 0 109 23t61 69h233q-20 -152 -124.5 -230.5t-278.5 -78.5zM1481 0h-398v817l-610 -817h-346v1434h397v-787l590 787h367v-1434z" />
    <glyph glyph-name="uni041A" unicode="&#x41a;" horiz-adv-x="1505" 
d="M127 0v1434h397l-2 -541h72l434 541h475l-596 -695l625 -739h-492l-446 549h-72l2 -549h-397z" />
    <glyph glyph-name="uni041B" unicode="&#x41b;" horiz-adv-x="1589" 
d="M977 1444l600 -1444h-440l-346 895l-347 -895h-430l598 1444h365z" />
    <glyph glyph-name="uni041C" unicode="&#x41c;" horiz-adv-x="1777" 
d="M127 0v1434h420l342 -555l342 555h420v-1434h-396v823l-366 -561h-8l-365 559v-821h-389z" />
    <glyph glyph-name="uni041D" unicode="&#x41d;" horiz-adv-x="1558" 
d="M127 0v1434h397v-537h510v537h398v-1434h-398v545h-510v-545h-397z" />
    <glyph glyph-name="uni041E" unicode="&#x41e;" horiz-adv-x="1701" 
d="M850 -29q-163 0 -306.5 58.5t-245 158.5t-160 236.5t-58.5 288.5v4q0 152 59.5 289.5t161.5 237.5t246 159t307 59q217 0 394 -99.5t276.5 -269t99.5 -372.5v-4q0 -152 -59.5 -290t-161.5 -238t-246 -159t-307 -59zM854 330q159 0 261 112t102 271v4q0 161 -103 274
t-264 113t-263 -112t-102 -271v-4q0 -158 104.5 -272.5t264.5 -114.5z" />
    <glyph glyph-name="uni041F" unicode="&#x41f;" horiz-adv-x="1550" 
d="M127 0v1434h1296v-1434h-397v1081h-502v-1081h-397z" />
    <glyph glyph-name="uni0420" unicode="&#x420;" horiz-adv-x="1378" 
d="M127 0v1434h616q273 0 433.5 -133.5t160.5 -368.5v-4q0 -166 -80.5 -284.5t-217.5 -176t-316 -57.5h-199v-410h-397zM524 721h191q104 0 165.5 51t61.5 137v4q0 91 -60.5 139t-168.5 48h-189v-379z" />
    <glyph glyph-name="uni0421" unicode="&#x421;" horiz-adv-x="1497" 
d="M819 -29q-203 0 -372 95.5t-268 266t-99 380.5v4q0 155 57.5 292.5t156.5 237t239.5 157.5t300.5 58q395 0 608 -297l-299 -231q-67 82 -141.5 125t-172.5 43q-148 0 -245 -111t-97 -270v-4q0 -163 96.5 -273t245.5 -110q105 0 177.5 43.5t146.5 130.5l299 -213
q-114 -155 -263 -239.5t-370 -84.5z" />
    <glyph glyph-name="uni0422" unicode="&#x422;" horiz-adv-x="1351" 
d="M477 0v1085h-428v349h1256v-349h-431v-1085h-397z" />
    <glyph glyph-name="uni0423" unicode="&#x423;" horiz-adv-x="1527" 
d="M739 0h-444l274 483l-553 951h453l319 -578l299 578h445z" />
    <glyph glyph-name="uni0424" unicode="&#x424;" horiz-adv-x="2031" 
d="M817 -27v138q-175 2 -315.5 47.5t-234.5 125t-144.5 190t-50.5 243.5v2q0 131 50 241t143.5 190.5t234.5 126.5t317 50v133h397v-133q351 -7 548.5 -171t197.5 -435v-2q0 -130 -50.5 -240.5t-144.5 -191.5t-235.5 -127.5t-315.5 -48.5v-138h-397zM471 721v-2
q0 -124 89 -201.5t267 -77.5v559h-2q-175 0 -264.5 -78.5t-89.5 -199.5zM1206 999v-559q177 0 266 78.5t89 200.5v2q0 122 -89.5 200t-265.5 78z" />
    <glyph glyph-name="uni0425" unicode="&#x425;" horiz-adv-x="1499" 
d="M1010 1434h446l-471 -699l492 -735h-457l-275 434l-276 -434h-446l491 729l-471 705h457l252 -404z" />
    <glyph glyph-name="uni0426" unicode="&#x426;" horiz-adv-x="1658" 
d="M1253 -309v309h-1126v1434h397v-1082h502v1082h397v-1082h199v-661h-369z" />
    <glyph glyph-name="uni0427" unicode="&#x427;" horiz-adv-x="1484" 
d="M961 0v432q-169 -31 -287 -31q-281 0 -426.5 136.5t-145.5 394.5v502h398v-449q0 -118 55.5 -170.5t177.5 -52.5q127 0 228 26v646h397v-1434h-397z" />
    <glyph glyph-name="uni0428" unicode="&#x428;" horiz-adv-x="2308" 
d="M127 0v1434h397v-1082h432v1082h398v-1082h430v1082h397v-1434h-2054z" />
    <glyph glyph-name="uni0429" unicode="&#x429;" horiz-adv-x="2426" 
d="M127 0v1434h397v-1082h432v1082h398v-1082h430v1082h397v-1082h207v-661h-369v309h-1892z" />
    <glyph glyph-name="uni042A" unicode="&#x42a;" horiz-adv-x="1726" 
d="M467 0v1098h-418v336h815v-428h211q279 0 440.5 -126t161.5 -366v-4q0 -239 -163.5 -374.5t-450.5 -135.5h-596zM864 330h189q106 0 167.5 47t61.5 133v4q0 86 -58.5 131t-168.5 45h-191v-360z" />
    <glyph glyph-name="uni042B" unicode="&#x42b;" horiz-adv-x="2015" 
d="M127 0v1434h397v-428h211q279 0 440.5 -126t161.5 -366v-4q0 -239 -163.5 -374.5t-450.5 -135.5h-596zM1491 0v1434h397v-1434h-397zM524 330h189q106 0 167.5 47t61.5 133v4q0 86 -58.5 131t-168.5 45h-191v-360z" />
    <glyph glyph-name="uni042C" unicode="&#x42c;" horiz-adv-x="1386" 
d="M127 0v1434h397v-428h211q279 0 440.5 -126t161.5 -366v-4q0 -239 -163.5 -374.5t-450.5 -135.5h-596zM524 330h189q106 0 167.5 47t61.5 133v4q0 86 -58.5 131t-168.5 45h-191v-360z" />
    <glyph glyph-name="uni042D" unicode="&#x42d;" horiz-adv-x="1484" 
d="M401 569v303l598 -4q-35 117 -126.5 181.5t-221.5 64.5q-115 0 -206 -37t-187 -108l-199 286q121 99 265.5 153t341.5 54q223 0 392.5 -97.5t258 -264.5t88.5 -377v-6q0 -155 -53.5 -291.5t-150.5 -237t-240.5 -159t-313.5 -58.5q-349 0 -598 211l207 287
q94 -73 183.5 -110t201.5 -37q136 0 230.5 66t129.5 185z" />
    <glyph glyph-name="uni042E" unicode="&#x42e;" horiz-adv-x="2295" 
d="M127 0v1434h397v-537h215q63 248 261 406.5t470 158.5q210 0 382 -100.5t268 -270t96 -370.5v-4q0 -149 -57 -286t-155.5 -238.5t-239 -161.5t-298.5 -60q-272 0 -474 162.5t-255 411.5h-213v-545h-397zM1470 330q151 0 245.5 111.5t94.5 271.5v4q0 161 -96 274t-248 113
q-151 0 -245.5 -111.5t-94.5 -271.5v-4q0 -161 96 -274t248 -113z" />
    <glyph glyph-name="uni042F" unicode="&#x42f;" horiz-adv-x="1474" 
d="M1348 1434v-1434h-398v434h-172l-291 -434h-460l346 500q-146 59 -221.5 170.5t-75.5 259.5v2q0 244 168 373t456 129h648zM950 1092h-260q-101 0 -158 -44.5t-57 -129.5v-3q0 -81 56.5 -125.5t156.5 -44.5h262v347z" />
    <glyph glyph-name="uni0430" unicode="&#x430;" horiz-adv-x="1226" 
d="M422 -25q-163 0 -267 91t-104 251v5q0 169 117 258.5t317 89.5q159 0 267 -43v18q0 182 -222 182q-151 0 -307 -61l-80 272q211 86 449 86q287 0 422 -135q119 -116 119 -352v-637h-383v117q-135 -142 -328 -142zM561 219q87 0 141 49t54 133v52q-72 28 -154 28
q-85 0 -131.5 -36.5t-46.5 -100.5v-4q0 -56 38 -88.5t99 -32.5z" />
    <glyph glyph-name="uni0431" unicode="&#x431;" horiz-adv-x="1353" 
d="M684 -27q-130 0 -241 44t-185 118q-95 95 -142.5 225.5t-47.5 321.5v2q0 351 155 546.5t486 233.5l426 52l43 -330l-428 -51q-165 -20 -250.5 -87.5t-102.5 -189.5q157 143 391 143q240 0 372 -130.5t132 -350.5v-2q0 -235 -170 -390t-438 -155zM688 295
q103 0 166.5 65.5t63.5 165.5v2q0 96 -60 159t-160 63q-107 0 -171 -66t-64 -166v-2q0 -95 61.5 -158.5t163.5 -62.5z" />
    <glyph glyph-name="uni0432" unicode="&#x432;" horiz-adv-x="1259" 
d="M104 0v1108h664q190 0 293.5 -75.5t103.5 -207.5v-2q0 -99 -51 -159t-145 -93q114 -33 173.5 -94t59.5 -168v-2q0 -147 -115.5 -227.5t-324.5 -79.5h-658zM483 666h179q126 0 126 96v2q0 44 -31.5 69.5t-94.5 24.5h-179v-192zM483 453v-201h207q131 0 131 100v2
q0 46 -34 73t-99 26h-205z" />
    <glyph glyph-name="uni0433" unicode="&#x433;" horiz-adv-x="1042" 
d="M104 0v1108h902v-332h-512v-776h-390z" />
    <glyph glyph-name="uni0434" unicode="&#x434;" horiz-adv-x="1480" 
d="M965 1116l344 -782h139v-615h-352v287h-711v-287h-352v615h139l344 782h449zM737 768l-178 -449h356z" />
    <glyph glyph-name="uni0435" unicode="&#x435;" horiz-adv-x="1241" 
d="M655 -27q-262 0 -428 160t-166 416v4q0 160 71 292.5t199.5 210t289.5 77.5q111 0 203.5 -32t157.5 -88t109.5 -132.5t65.5 -166t21 -188.5q0 -53 -2 -80h-742q46 -182 240 -182q72 0 129 26.5t117 86.5l215 -178q-175 -226 -480 -226zM428 645h387q-11 93 -63 147
t-131 54q-76 0 -125.5 -53.5t-67.5 -147.5z" />
    <glyph glyph-name="uni0436" unicode="&#x436;" horiz-adv-x="1910" 
d="M1147 1108l-6 -393h57l275 393h432l-404 -543l416 -565h-438l-279 395h-59l6 -395h-383l6 395h-61l-281 -395h-436l416 543l-402 565h438l269 -393h57l-6 393h383z" />
    <glyph glyph-name="uni0437" unicode="&#x437;" horiz-adv-x="1187" 
d="M45 111l133 258q181 -101 391 -101q179 0 179 88v2q0 37 -38 58t-114 20h-264v238h260q71 0 102 20t31 62v2q0 38 -41 59.5t-117 20.5q-192 0 -370 -103l-140 250q229 148 529 148q244 0 383 -88t139 -236v-2q0 -175 -197 -246q219 -65 219 -254v-2q0 -150 -147 -241
t-401 -91q-306 0 -537 138z" />
    <glyph glyph-name="uni0438" unicode="&#x438;" horiz-adv-x="1327" 
d="M104 0v1108h383v-541l381 541h355v-1108h-383v557l-389 -557h-347z" />
    <glyph glyph-name="uni0439" unicode="&#x439;" horiz-adv-x="1327" 
d="M104 0v1108h383v-541l381 541h355v-1108h-383v557l-389 -557h-347zM662 1200q-173 0 -280 88.5t-124 251.5h227q41 -119 177 -119q74 0 115 30.5t61 88.5h227q-13 -162 -121 -251t-282 -89z" />
    <glyph glyph-name="uni043A" unicode="&#x43a;" horiz-adv-x="1267" 
d="M494 1108v-391h59l268 391h451l-416 -541l424 -567h-449l-276 393h-61v-393h-390v1108h390z" />
    <glyph glyph-name="uni043B" unicode="&#x43b;" horiz-adv-x="1331" 
d="M846 1116l467 -1116h-410l-239 643l-240 -643h-406l467 1116h361z" />
    <glyph glyph-name="uni043C" unicode="&#x43c;" horiz-adv-x="1499" 
d="M104 0v1108h383l263 -406l264 406h381v-1108h-369v580l-274 -416h-7l-272 409v-573h-369z" />
    <glyph glyph-name="uni043D" unicode="&#x43d;" horiz-adv-x="1327" 
d="M104 0v1108h390v-383h342v383h387v-1108h-387v389h-342v-389h-390z" />
    <glyph glyph-name="uni043E" unicode="&#x43e;" horiz-adv-x="1343" 
d="M670 -27q-129 0 -243 45.5t-194 123t-126 183.5t-46 224v4q0 118 46.5 224.5t127 184.5t195 124.5t244.5 46.5q173 0 313.5 -78t218.5 -210t78 -288v-4q0 -157 -79 -290t-220.5 -211.5t-314.5 -78.5zM674 303q103 0 168 71.5t65 174.5v4q0 105 -67 178.5t-170 73.5
q-104 0 -168 -71.5t-64 -176.5v-4q0 -103 67.5 -176.5t168.5 -73.5z" />
    <glyph glyph-name="uni043F" unicode="&#x43f;" horiz-adv-x="1327" 
d="M104 0v1108h1119v-1108h-387v776h-342v-776h-390z" />
    <glyph glyph-name="uni0440" unicode="&#x440;" horiz-adv-x="1384" 
d="M104 -328v1436h390v-147q67 81 144 126.5t191 45.5q98 0 187.5 -40.5t157 -113t107.5 -182t40 -238.5v-4q0 -131 -39.5 -241.5t-107 -184t-156.5 -114t-187 -40.5q-115 0 -193 42.5t-144 117.5v-463h-390zM713 301q94 0 160.5 71t66.5 181v4q0 108 -66.5 180t-160.5 72
q-96 0 -162 -71.5t-66 -180.5v-4q0 -109 66 -180.5t162 -71.5z" />
    <glyph glyph-name="uni0441" unicode="&#x441;" horiz-adv-x="1165" 
d="M641 -27q-164 0 -298 78.5t-208 210t-74 287.5v4q0 156 74 287.5t210.5 210.5t307.5 79q313 0 473 -245l-262 -197q-44 58 -93 87.5t-114 29.5q-94 0 -156.5 -72t-62.5 -176v-4q0 -107 62 -179.5t159 -72.5q68 0 116.5 28.5t96.5 86.5l261 -189q-83 -123 -200.5 -188.5
t-291.5 -65.5z" />
    <glyph glyph-name="uni0442" unicode="&#x442;" horiz-adv-x="1181" 
d="M397 0v778h-348v330h1084v-330h-349v-778h-387z" />
    <glyph glyph-name="uni0443" unicode="&#x443;" horiz-adv-x="1282" 
d="M651 440l209 668h400l-406 -1081q-75 -200 -166.5 -280.5t-255.5 -80.5q-185 0 -354 96l119 273q97 -60 170 -60q57 0 92 45l-434 1088h405z" />
    <glyph glyph-name="uni0444" unicode="&#x444;" horiz-adv-x="1802" 
d="M1092 -328h-381v324q-302 12 -476 166t-174 389v2q0 235 174.5 391t475.5 168v383h381v-383q302 -12 475.5 -166t173.5 -389v-2q0 -235 -174 -391t-475 -168v-324zM1370 553v2q0 108 -78.5 172.5t-214.5 69.5v-486q139 1 216 66.5t77 175.5zM434 559v-2q0 -110 78 -175.5
t213 -70.5v486q-139 -4 -215 -67.5t-76 -170.5z" />
    <glyph glyph-name="uni0445" unicode="&#x445;" horiz-adv-x="1206" 
d="M442 1108l164 -277l166 277h410l-365 -547l373 -561h-418l-172 289l-174 -289h-410l373 557l-364 551h417z" />
    <glyph glyph-name="uni0446" unicode="&#x446;" horiz-adv-x="1409" 
d="M1020 -281v281h-916v1108h390v-774h342v774h387v-774h149v-615h-352z" />
    <glyph glyph-name="uni0447" unicode="&#x447;" horiz-adv-x="1265" 
d="M772 0v301q-105 -25 -217 -25q-111 0 -195 23t-148 74t-97 137.5t-33 206.5v391h385v-354q0 -74 39.5 -107t122.5 -33q79 0 143 21v473h389v-1108h-389z" />
    <glyph glyph-name="uni0448" unicode="&#x448;" horiz-adv-x="2000" 
d="M104 0v1108h390v-774h313v774h387v-774h313v774h389v-1108h-1792z" />
    <glyph glyph-name="uni0449" unicode="&#x449;" horiz-adv-x="2082" 
d="M104 0v1108h390v-774h313v774h387v-774h313v774h389v-774h148v-615h-352v281h-1588z" />
    <glyph glyph-name="uni044A" unicode="&#x44a;" horiz-adv-x="1441" 
d="M348 0v795h-309v313h692v-289h182q233 0 360.5 -105t127.5 -296v-2q0 -184 -133.5 -300t-370.5 -116h-549zM727 543v-256h139q75 0 117.5 34t42.5 97v2q0 56 -41 90t-117 33h-141z" />
    <glyph glyph-name="uni044B" unicode="&#x44b;" horiz-adv-x="1767" 
d="M489 1108v-289h183q233 0 361 -105t128 -296v-2q0 -184 -133.5 -300t-372.5 -116h-551v1108h385zM487 543v-256h140q74 0 115.5 34t41.5 97v2q0 56 -40 90t-115 33h-142zM1274 0v1108h389v-1108h-389z" />
    <glyph glyph-name="uni044C" unicode="&#x44c;" horiz-adv-x="1202" 
d="M104 0v1108h385v-289h183q233 0 361 -105t128 -296v-2q0 -184 -133.5 -300t-372.5 -116h-551zM487 287h140q74 0 115.5 34t41.5 97v2q0 56 -40 90t-115 33h-142v-256z" />
    <glyph glyph-name="uni044D" unicode="&#x44d;" horiz-adv-x="1193" 
d="M326 680l446 -6q-28 77 -95.5 117t-156.5 40q-167 0 -317 -104l-148 256q110 76 224 113t262 37q270 0 432 -161.5t162 -416.5v-4q0 -122 -43.5 -228.5t-121 -183.5t-191.5 -121.5t-249 -44.5q-147 0 -263.5 39t-223.5 113l156 254q143 -103 321 -103q88 0 156 40.5
t96 117.5l-446 -4v250z" />
    <glyph glyph-name="uni044E" unicode="&#x44e;" horiz-adv-x="1863" 
d="M494 389v-389h-390v1108h390v-383h147q55 180 211 294t360 114q168 0 304.5 -78t212 -210t75.5 -288v-4q0 -118 -45 -224.5t-123.5 -184.5t-190 -124.5t-237.5 -46.5q-206 0 -362.5 117t-206.5 299h-145zM1212 303q98 0 159 71.5t61 174.5v4q0 105 -63.5 178.5
t-160.5 73.5q-99 0 -159 -71t-60 -177v-4q0 -103 63.5 -176.5t159.5 -73.5z" />
    <glyph glyph-name="uni044F" unicode="&#x44f;" horiz-adv-x="1269" 
d="M459 0h-422l270 385q-227 99 -227 334v2q0 187 130.5 288t358.5 99h596v-1108h-383v330h-100zM784 834h-182q-69 0 -108 -33t-39 -90v-2q0 -53 38 -85.5t105 -31.5h186v242z" />
    <glyph glyph-name="uni0450" unicode="&#x450;" horiz-adv-x="1241" 
d="M655 -27q-262 0 -428 160t-166 416v4q0 160 71 292.5t199.5 210t289.5 77.5q111 0 203.5 -32t157.5 -88t109.5 -132.5t65.5 -166t21 -188.5q0 -53 -2 -80h-742q46 -182 240 -182q72 0 129 26.5t117 86.5l215 -178q-175 -226 -480 -226zM428 645h387q-11 93 -63 147
t-131 54q-76 0 -125.5 -53.5t-67.5 -147.5zM502 1212l-301 261l360 116l211 -377h-270z" />
    <glyph glyph-name="uni0451" unicode="&#x451;" horiz-adv-x="1241" 
d="M672 1212v291h332v-291h-332zM244 1212v291h329v-291h-329zM655 -27q-262 0 -428 160t-166 416v4q0 160 71 292.5t199.5 210t289.5 77.5q111 0 203.5 -32t157.5 -88t109.5 -132.5t65.5 -166t21 -188.5q0 -53 -2 -80h-742q46 -182 240 -182q72 0 129 26.5t117 86.5
l215 -178q-175 -226 -480 -226zM428 645h387q-11 93 -63 147t-131 54q-76 0 -125.5 -53.5t-67.5 -147.5z" />
    <glyph glyph-name="uni0452" unicode="&#x452;" horiz-adv-x="1282" 
d="M813 1096h-307v-203q122 27 219 27q475 0 475 -443v-391q0 -209 -105.5 -314.5t-324.5 -105.5q-96 0 -154 15v260q12 -4 54 -4q68 0 104 31.5t37 101.5v374q0 74 -39.5 107t-122.5 33q-73 0 -143 -21v-563h-387v1092h-166v282h166v121h387v-121h307v-278z" />
    <glyph glyph-name="uni0453" unicode="&#x453;" horiz-adv-x="1042" 
d="M395 1204l213 377l361 -117l-303 -260h-271zM104 0v1108h902v-332h-512v-776h-390z" />
    <glyph glyph-name="uni0454" unicode="&#x454;" horiz-adv-x="1200" 
d="M868 680v-250l-444 4q28 -77 100 -117.5t162 -40.5q166 0 313 105l160 -250q-111 -78 -227.5 -118t-261.5 -40q-136 0 -251 44.5t-193 121.5t-121.5 183.5t-43.5 228.5v6q0 121 43.5 226.5t122 183t195 122t254.5 44.5q149 0 257.5 -36.5t215.5 -109.5l-160 -260
q-152 104 -301 104q-91 0 -163.5 -40.5t-100.5 -116.5z" />
    <glyph glyph-name="uni0455" unicode="&#x455;" horiz-adv-x="1052" 
d="M545 -25q-296 0 -522 166l145 234q195 -127 379 -127q100 0 100 59v4q0 35 -58 59q-29 12 -122 38q-92 23 -155.5 48t-121.5 65t-87 99.5t-29 139.5v4q0 172 124 269t320 97q254 0 457 -129l-133 -245q-85 49 -173 76.5t-155 27.5q-43 0 -66.5 -15t-23.5 -40v-4
q0 -30 39.5 -49t140.5 -50q73 -20 126 -39t106 -48.5t86.5 -65t54 -86t20.5 -113.5v-4q0 -179 -122 -275t-330 -96z" />
    <glyph glyph-name="uni0456" unicode="&#x456;" horiz-adv-x="616" 
d="M106 1208v287h404v-287h-404zM115 0v1108h387v-1108h-387z" />
    <glyph glyph-name="uni0457" unicode="&#x457;" horiz-adv-x="616" 
d="M358 1204v291h332v-291h-332zM-70 1204v291h330v-291h-330zM115 0v1108h387v-1108h-387z" />
    <glyph glyph-name="uni0458" unicode="&#x458;" horiz-adv-x="616" 
d="M106 1208v287h404v-287h-404zM109 -334q-74 0 -162 15v258q40 -5 51 -5q59 0 88 31t29 101v1042h387v-1059q0 -204 -99 -293.5t-294 -89.5z" />
    <glyph glyph-name="uni0459" unicode="&#x459;" horiz-adv-x="1851" 
d="M774 0v819h-6l-383 -819h-401l538 1108h637v-289h164q233 0 360 -105t127 -296v-2q0 -184 -133 -300t-370 -116h-533zM1155 287h121q75 0 117.5 34t42.5 97v2q0 56 -41 90t-117 33h-123v-256z" />
    <glyph glyph-name="uni045A" unicode="&#x45a;" horiz-adv-x="1896" 
d="M1204 1108v-289h164q233 0 360 -105t127 -296v-2q0 -184 -133 -300t-370 -116h-533v389h-325v-389h-390v1108h390v-383h325v383h385zM1200 543v-256h121q75 0 117.5 34t42.5 97v2q0 56 -41 90t-117 33h-123z" />
    <glyph glyph-name="uni045B" unicode="&#x45b;" horiz-adv-x="1282" 
d="M813 1096h-307v-203q122 27 219 27q475 0 475 -443v-477h-389v444q0 74 -39.5 107t-122.5 33q-73 0 -143 -21v-563h-387v1092h-166v282h166v121h387v-121h307v-278z" />
    <glyph glyph-name="uni045C" unicode="&#x45c;" horiz-adv-x="1267" 
d="M512 1204l213 377l360 -117l-303 -260h-270zM494 1108v-391h59l268 391h451l-416 -541l424 -567h-449l-276 393h-61v-393h-390v1108h390z" />
    <glyph glyph-name="uni045D" unicode="&#x45d;" horiz-adv-x="1327" 
d="M541 1204l-301 260l360 117l211 -377h-270zM104 0v1108h383v-541l381 541h355v-1108h-383v557l-389 -557h-347z" />
    <glyph glyph-name="uni045E" unicode="&#x45e;" horiz-adv-x="1282" 
d="M651 440l209 668h400l-406 -1081q-75 -200 -166.5 -280.5t-255.5 -80.5q-185 0 -354 96l119 273q97 -60 170 -60q57 0 92 45l-434 1088h405zM647 1200q-173 0 -279.5 88.5t-123.5 251.5h227q20 -58 61 -88.5t115 -30.5t115 30.5t61 88.5h228q-13 -162 -121.5 -251
t-282.5 -89z" />
    <glyph glyph-name="uni045F" unicode="&#x45f;" horiz-adv-x="1327" 
d="M487 -281v281h-383v1108h390v-774h342v774h387v-1108h-383v-281h-353z" />
    <glyph glyph-name="uni0462" unicode="&#x462;" horiz-adv-x="1720" 
d="M850 1460v-151h459v-291h-459v-166h295q250 0 389 -106.5t139 -307.5v-2q0 -198 -143 -317t-412 -119h-655v1008h-412v301h412v151h387zM850 305h264q79 0 123.5 34.5t44.5 94.5v2q0 61 -42.5 94t-123.5 33h-266v-258z" />
    <glyph glyph-name="uni0463" unicode="&#x463;" horiz-adv-x="1439" 
d="M1106 831h-381v-120h233q211 0 326 -90t115 -256v-3q0 -161 -119 -261.5t-334 -100.5h-604v825h-303v283h303v387h383v-387h381v-277zM723 461v-201h168q135 0 135 102v3q0 45 -34 71t-99 25h-170z" />
    <glyph glyph-name="uni0472" unicode="&#x472;" horiz-adv-x="1679" 
d="M838 -29q-161 0 -302.5 58.5t-241 158.5t-157 236.5t-57.5 288.5v4q0 153 58 290t158 237t242.5 159t303.5 59q216 0 391 -99.5t272 -269t97 -372.5v-4q0 -153 -58 -290.5t-158.5 -237.5t-243 -159t-304.5 -59zM842 303q138 0 236 71.5t134 194.5h-743
q36 -123 134.5 -194.5t238.5 -71.5zM838 1130q-135 0 -233 -70t-134 -188h737q-36 118 -135 188t-235 70z" />
    <glyph glyph-name="uni0473" unicode="&#x473;" horiz-adv-x="1325" 
d="M662 -27q-129 0 -242 46t-191 124.5t-123 184t-45 221.5v4q0 118 45.5 224.5t124.5 185t192.5 124.5t242.5 46q128 0 240 -46t190.5 -123.5t124 -183.5t45.5 -223v-4q0 -116 -45.5 -222.5t-124.5 -185t-192.5 -125.5t-241.5 -47zM666 268q89 0 153 48t88 128h-487
q25 -82 90.5 -129t155.5 -47zM662 838q-91 0 -155.5 -47t-88.5 -127h489q-26 80 -92.5 127t-152.5 47z" />
    <glyph glyph-name="uni0474" unicode="&#x474;" horiz-adv-x="1638" 
d="M584 -10l-570 1444h443l317 -908l170 473q60 172 137 267t182 133.5t269 38.5h74v-344h-25q-105 0 -166.5 -46t-109.5 -169l-353 -889h-368z" />
    <glyph glyph-name="uni0475" unicode="&#x475;" horiz-adv-x="1320" 
d="M453 -8l-433 1116h412l207 -647l88 256q74 223 181 310t315 87q39 0 71 -4v-303h-4q-92 0 -141.5 -40.5t-91.5 -145.5l-248 -629h-356z" />
    <glyph glyph-name="uni0490" unicode="&#x490;" horiz-adv-x="1263" 
d="M127 0v1434h725v295h367v-639h-695v-1090h-397z" />
    <glyph glyph-name="uni0491" unicode="&#x491;" horiz-adv-x="1042" 
d="M104 0v1108h560v254h342v-586h-512v-776h-390z" />
    <glyph glyph-name="uni0492" unicode="&#x492;" horiz-adv-x="1363" 
d="M227 0v518h-164v270h164v646h1092v-344h-694v-304h323v-268h-323v-518h-398z" />
    <glyph glyph-name="uni0493" unicode="&#x493;" horiz-adv-x="1093" 
d="M154 0v379h-127v184h127v545h901v-332h-512v-213h243v-184h-243v-379h-389z" />
    <glyph glyph-name="uni0496" unicode="&#x496;" horiz-adv-x="2312" 
d="M2247 1434l-559 -699l307 -383h297v-661h-369v309h-117l-430 553h-51l6 -553h-395l6 553h-59l-432 -553h-465l587 715l-553 719h474l399 -543h49l-6 543h395l-6 -543h47l412 543h463z" />
    <glyph glyph-name="uni0497" unicode="&#x497;" horiz-adv-x="1943" 
d="M1147 1108l-6 -393h57l275 393h432l-404 -543l170 -231h262v-615h-352v281h-102l-279 395h-59l6 -395h-383l6 395h-61l-281 -395h-436l416 543l-402 565h438l269 -393h57l-6 393h383z" />
    <glyph glyph-name="uni0498" unicode="&#x498;" horiz-adv-x="1388" 
d="M489 -309l11 295q-246 36 -451 186l191 289q220 -152 442 -152q114 0 177 35t63 100v2q0 129 -228 129h-295v293h297q96 0 145.5 34.5t49.5 96.5v2q0 60 -52.5 92.5t-150.5 32.5q-222 0 -430 -149l-188 276q136 101 287.5 155t349.5 54q277 0 429 -107t152 -288v-2
q0 -126 -58.5 -201.5t-185.5 -128.5q137 -40 209 -115.5t72 -213.5v-3q0 -159 -123.5 -273.5t-349.5 -145.5l12 -293h-375z" />
    <glyph glyph-name="uni0499" unicode="&#x499;" horiz-adv-x="1187" 
d="M45 111l133 258q181 -101 391 -101q179 0 179 88v2q0 37 -38 58t-114 20h-264v238h260q71 0 102 20t31 62v2q0 38 -41 59.5t-117 20.5q-192 0 -370 -103l-140 250q229 148 529 148q244 0 383 -88t139 -236v-2q0 -175 -197 -246q219 -65 219 -254v-2q0 -123 -100 -206.5
t-280 -112.5l12 -267h-365l13 267q-211 26 -365 125z" />
    <glyph glyph-name="uni049A" unicode="&#x49a;" horiz-adv-x="1552" 
d="M1503 1434l-596 -695l328 -387h303v-661h-369v309h-129l-446 549h-72l2 -549h-397v1434h397l-2 -541h72l434 541h475z" />
    <glyph glyph-name="uni049B" unicode="&#x49b;" horiz-adv-x="1294" 
d="M494 1108v-391h59l268 391h451l-416 -541l174 -233h254v-615h-352v281h-101l-276 393h-61v-393h-390v1108h390z" />
    <glyph glyph-name="uni049C" unicode="&#x49c;" horiz-adv-x="1615" 
d="M844 1268l-10 -332l307 498h442l-459 -680l486 -754h-455l-321 510l10 -303h-197l6 364h-129v-571h-397v1434h397v-549h129l-6 383h197z" />
    <glyph glyph-name="uni049D" unicode="&#x49d;" horiz-adv-x="1396" 
d="M1391 0h-422l-240 412l8 -271h-159l2 291h-88v-432h-388v1108h388v-406h88l-2 281h159l-8 -264l238 389h413l-366 -522z" />
    <glyph glyph-name="uni04A0" unicode="&#x4a0;" horiz-adv-x="1845" 
d="M49 1098v336h815l-2 -541h72l434 541h475l-596 -695l625 -739h-492l-446 549h-72l2 -549h-397v1098h-418z" />
    <glyph glyph-name="uni04A1" unicode="&#x4a1;" horiz-adv-x="1511" 
d="M39 795v313h696v-391h58l270 391h450l-415 -541l424 -567h-449l-276 393h-62v-393h-389v795h-307z" />
    <glyph glyph-name="uni04A2" unicode="&#x4a2;" horiz-adv-x="1669" 
d="M1262 -309v309h-228v545h-510v-545h-397v1434h397v-537h510v537h398v-1082h198v-661h-368z" />
    <glyph glyph-name="uni04A3" unicode="&#x4a3;" horiz-adv-x="1409" 
d="M1020 -281v281h-184v389h-342v-389h-390v1108h390v-383h342v383h387v-774h149v-615h-352z" />
    <glyph glyph-name="uni04A4" unicode="&#x4a4;" horiz-adv-x="2086" 
d="M1016 0v545h-492v-545h-397v1434h397v-537h492v537h1028v-344h-631v-1090h-397z" />
    <glyph glyph-name="uni04A5" unicode="&#x4a5;" horiz-adv-x="1736" 
d="M494 1108v-383h325v383h881v-332h-494v-776h-387v389h-325v-389h-390v1108h390z" />
    <glyph glyph-name="uni04AA" unicode="&#x4aa;" horiz-adv-x="1497" 
d="M629 -309l12 301q-248 60 -404.5 255.5t-156.5 465.5v4q0 155 57.5 292.5t156.5 237t239.5 157.5t300.5 58q395 0 608 -297l-299 -231q-67 82 -141.5 125t-172.5 43q-148 0 -245 -111t-97 -270v-4q0 -163 96.5 -273t245.5 -110q105 0 177.5 43.5t146.5 130.5l299 -213
q-89 -123 -200 -201t-261 -106l13 -297h-375z" />
    <glyph glyph-name="uni04AB" unicode="&#x4ab;" horiz-adv-x="1165" 
d="M455 -281l12 279q-184 54 -295 206t-111 345v4q0 156 74 287.5t210.5 210.5t307.5 79q313 0 473 -245l-262 -197q-44 58 -93 87.5t-114 29.5q-94 0 -156.5 -72t-62.5 -176v-4q0 -107 62 -179.5t159 -72.5q68 0 116.5 28.5t96.5 86.5l261 -189q-64 -92 -142.5 -151
t-185.5 -84l14 -273h-364z" />
    <glyph glyph-name="uni04AE" unicode="&#x4ae;" horiz-adv-x="1480" 
d="M543 0v537l-547 897h453l294 -523l297 523h445l-545 -891v-543h-397z" />
    <glyph glyph-name="uni04AF" unicode="&#x4af;" horiz-adv-x="1280" 
d="M834 -328h-388v359l-426 1077h410l213 -647l213 647h404l-426 -1077v-359z" />
    <glyph glyph-name="uni04B0" unicode="&#x4b0;" horiz-adv-x="1480" 
d="M543 0v332h-328v270h287l-506 832h453l294 -523l297 523h445l-510 -832h291v-270h-326v-332h-397z" />
    <glyph glyph-name="uni04B1" unicode="&#x4b1;" horiz-adv-x="1280" 
d="M643 461l213 647h404l-367 -924h246v-184h-305v-328h-388v328h-305v184h244l-365 924h410z" />
    <glyph glyph-name="uni04B2" unicode="&#x4b2;" horiz-adv-x="1560" 
d="M1020 0l-275 434l-276 -434h-446l491 729l-471 705h457l252 -404l258 404h446l-471 -699l256 -383h289v-661h-369v309h-141z" />
    <glyph glyph-name="uni04B3" unicode="&#x4b3;" horiz-adv-x="1251" 
d="M442 1108l164 -277l166 277h410l-365 -547l152 -227h264v-615h-352v281h-109l-172 289l-174 -289h-410l373 557l-364 551h417z" />
    <glyph glyph-name="uni04B6" unicode="&#x4b6;" horiz-adv-x="1595" 
d="M961 0v432q-169 -31 -287 -31q-281 0 -426.5 136.5t-145.5 394.5v502h398v-449q0 -118 55.5 -170.5t177.5 -52.5q127 0 228 26v646h397v-1082h198v-661h-368v309h-227z" />
    <glyph glyph-name="uni04B7" unicode="&#x4b7;" horiz-adv-x="1347" 
d="M772 0v301q-105 -25 -217 -25q-111 0 -195 23t-148 74t-97 137.5t-33 206.5v391h385v-354q0 -74 39.5 -107t122.5 -33q79 0 143 21v473h389v-774h148v-615h-353v281h-184z" />
    <glyph glyph-name="uni04B8" unicode="&#x4b8;" horiz-adv-x="1497" 
d="M973 0v442q-50 -8 -144 -20l7 -279h-199l4 269q-254 5 -396.5 136t-142.5 392v494h398v-443q0 -96 34.5 -148t108.5 -69l-6 381h199l-7 -385q98 12 144 27v637h397v-1434h-397z" />
    <glyph glyph-name="uni04B9" unicode="&#x4b9;" horiz-adv-x="1296" 
d="M715 88h-162l4 195q-112 2 -197 27.5t-148.5 77.5t-96.5 140t-33 209v371h381v-350q0 -116 94 -137l-4 266h162l-6 -269q59 9 100 17v473h383v-1108h-383v311q-41 -12 -98 -18z" />
    <glyph glyph-name="uni04BA" unicode="&#x4ba;" horiz-adv-x="1484" 
d="M524 1434v-430q162 28 287 28q281 0 426 -136.5t145 -391.5v-504h-397v449q0 121 -54.5 173t-178.5 52q-106 0 -228 -27v-647h-397v1434h397z" />
    <glyph glyph-name="uni04BB" unicode="&#x4bb;" horiz-adv-x="1298" 
d="M104 0v1495h390v-539q139 177 331 177q178 0 277.5 -108.5t99.5 -299.5v-725h-387v600q0 91 -42.5 139.5t-115.5 48.5q-74 0 -118.5 -49t-44.5 -139v-600h-390z" />
    <glyph glyph-name="uni04C0" unicode="&#x4c0;" horiz-adv-x="669" 
d="M137 0v1434h398v-1434h-398z" />
    <glyph glyph-name="uni04C1" unicode="&#x4c1;" horiz-adv-x="2267" 
d="M1133 1528q-173 0 -278.5 78.5t-125.5 230.5h236q20 -46 59 -69t109 -23q69 0 109 23t61 69h233q-20 -152 -124.5 -230.5t-278.5 -78.5zM20 1434h474l399 -543h49l-6 543h395l-6 -543h47l412 543h463l-559 -699l591 -735h-473l-430 553h-51l6 -553h-395l6 553h-59
l-432 -553h-465l587 715z" />
    <glyph glyph-name="uni04C2" unicode="&#x4c2;" horiz-adv-x="1910" 
d="M1147 1108l-6 -393h57l275 393h432l-404 -543l416 -565h-438l-279 395h-59l6 -395h-383l6 395h-61l-281 -395h-436l416 543l-402 565h438l269 -393h57l-6 393h383zM954 1200q-173 0 -279.5 88.5t-123.5 251.5h227q20 -58 61 -88.5t115 -30.5t115 30.5t61 88.5h228
q-13 -162 -121.5 -251t-282.5 -89z" />
    <glyph glyph-name="uni04CF" unicode="&#x4cf;" horiz-adv-x="616" 
d="M115 0v1495h387v-1495h-387z" />
    <glyph glyph-name="uni04D0" unicode="&#x4d0;" horiz-adv-x="1628" 
d="M14 0l609 1444h383l610 -1444h-426l-103 258h-555l-102 -258h-416zM649 567h322l-160 406zM815 1548q-173 0 -278 79t-125 231h235q39 -93 168 -93q69 0 109 23.5t61 69.5h234q-20 -152 -125 -231t-279 -79z" />
    <glyph glyph-name="uni04D1" unicode="&#x4d1;" horiz-adv-x="1226" 
d="M422 -25q-163 0 -267 91t-104 251v5q0 169 117 258.5t317 89.5q159 0 267 -43v18q0 182 -222 182q-151 0 -307 -61l-80 272q211 86 449 86q287 0 422 -135q119 -116 119 -352v-637h-383v117q-135 -142 -328 -142zM561 219q87 0 141 49t54 133v52q-72 28 -154 28
q-85 0 -131.5 -36.5t-46.5 -100.5v-4q0 -56 38 -88.5t99 -32.5zM621 1208q-173 0 -280 88.5t-124 251.5h227q20 -58 61.5 -88t115.5 -30t115 30t61 88h227q-13 -162 -121 -251t-282 -89z" />
    <glyph glyph-name="uni04D2" unicode="&#x4d2;" horiz-adv-x="1628" 
d="M14 0l609 1444h383l610 -1444h-426l-103 258h-555l-102 -258h-416zM649 567h322l-160 406zM870 1552v283h338v-283h-338zM418 1552v283h338v-283h-338z" />
    <glyph glyph-name="uni04D3" unicode="&#x4d3;" horiz-adv-x="1226" 
d="M422 -25q-163 0 -267 91t-104 251v5q0 169 117 258.5t317 89.5q159 0 267 -43v18q0 182 -222 182q-151 0 -307 -61l-80 272q211 86 449 86q287 0 422 -135q119 -116 119 -352v-637h-383v117q-135 -142 -328 -142zM561 219q87 0 141 49t54 133v52q-72 28 -154 28
q-85 0 -131.5 -36.5t-46.5 -100.5v-4q0 -56 38 -88.5t99 -32.5zM670 1212v291h331v-291h-331zM242 1212v291h329v-291h-329z" />
    <glyph glyph-name="uni04D4" unicode="&#x4d4;" horiz-adv-x="2177" 
d="M-10 0l758 1434h1341v-336h-715v-219h643v-314h-643v-227h725v-338h-1112v258h-463l-133 -258h-401zM684 567h303v541h-24z" />
    <glyph glyph-name="uni04D5" unicode="&#x4d5;" horiz-adv-x="1925" 
d="M461 -25q-114 0 -205.5 37.5t-148 116.5t-56.5 188v5q0 169 117 258.5t317 89.5q159 0 267 -43v18q0 182 -222 182q-151 0 -307 -61l-80 272q211 86 449 86q250 0 375 -125q144 134 348 134q134 0 240.5 -48.5t173 -133t101 -193t34.5 -232.5q0 -26 -4 -80h-742
q49 -182 240 -182q72 0 130 26.5t118 86.5l213 -178q-175 -226 -480 -226q-132 0 -243.5 44t-190.5 124q-222 -166 -444 -166zM1114 645h385q-11 93 -62 147t-130 54q-77 0 -128 -54t-65 -147zM567 223q108 0 224 90q-29 68 -37 140q-72 28 -152 28q-85 0 -131.5 -36.5
t-46.5 -100.5v-4q0 -54 40 -85.5t103 -31.5z" />
    <glyph glyph-name="uni04D6" unicode="&#x4d6;" horiz-adv-x="1368" 
d="M709 1528q-173 0 -278.5 78.5t-125.5 230.5h236q20 -46 59 -69t109 -23q69 0 109 23t61 69h233q-20 -152 -124.5 -230.5t-278.5 -78.5zM127 0v1434h1153v-336h-760v-219h688v-314h-688v-227h770v-338h-1163z" />
    <glyph glyph-name="uni04D7" unicode="&#x4d7;" horiz-adv-x="1241" 
d="M655 -27q-262 0 -428 160t-166 416v4q0 160 71 292.5t199.5 210t289.5 77.5q111 0 203.5 -32t157.5 -88t109.5 -132.5t65.5 -166t21 -188.5q0 -53 -2 -80h-742q46 -182 240 -182q72 0 129 26.5t117 86.5l215 -178q-175 -226 -480 -226zM428 645h387q-11 93 -63 147
t-131 54q-76 0 -125.5 -53.5t-67.5 -147.5zM623 1208q-173 0 -280 88.5t-124 251.5h227q20 -58 61.5 -88t115.5 -30t115 30t61 88h227q-13 -162 -121 -251t-282 -89z" />
    <glyph glyph-name="uni04D8" unicode="&#x4d8;" horiz-adv-x="1613" 
d="M389 954l-215 271q118 113 265.5 175t346.5 62q215 0 386 -95.5t266.5 -264.5t95.5 -381v-4q0 -152 -52.5 -288t-146 -237.5t-232.5 -161t-302 -59.5q-171 0 -309 60.5t-227.5 167t-137 249t-47.5 308.5q0 38 4 104h1044q-36 120 -126 187t-222 67q-117 0 -208.5 -40
t-182.5 -120zM803 305q127 0 212 71.5t115 196.5h-647q18 -120 101.5 -194t218.5 -74z" />
    <glyph glyph-name="uni04D9" unicode="&#x4d9;" horiz-adv-x="1241" 
d="M586 1135q262 0 428 -159.5t166 -414.5v-4q0 -120 -41.5 -227.5t-114.5 -185.5t-177.5 -123.5t-225.5 -45.5q-139 0 -247.5 49t-175 134t-101 193t-34.5 233q0 40 3 80h741q-23 90 -85 136t-155 46q-71 0 -127.5 -27t-117.5 -88l-216 178q175 226 480 226zM813 463h-387
q11 -92 63.5 -146.5t131.5 -54.5q76 0 125 53t67 148z" />
    <glyph glyph-name="uni04DC" unicode="&#x4dc;" horiz-adv-x="2267" 
d="M1190 1532v283h338v-283h-338zM737 1532v283h338v-283h-338zM20 1434h474l399 -543h49l-6 543h395l-6 -543h47l412 543h463l-559 -699l591 -735h-473l-430 553h-51l6 -553h-395l6 553h-59l-432 -553h-465l587 715z" />
    <glyph glyph-name="uni04DD" unicode="&#x4dd;" horiz-adv-x="1910" 
d="M1004 1204v291h331v-291h-331zM575 1204v291h330v-291h-330zM1147 1108l-6 -393h57l275 393h432l-404 -543l416 -565h-438l-279 395h-59l6 -395h-383l6 395h-61l-281 -395h-436l416 543l-402 565h438l269 -393h57l-6 393h383z" />
    <glyph glyph-name="uni04DE" unicode="&#x4de;" horiz-adv-x="1388" 
d="M754 1542v283h338v-283h-338zM301 1542v283h338v-283h-338zM258 977l-188 276q136 101 287.5 155t349.5 54q277 0 429 -107t152 -288v-2q0 -126 -58.5 -201.5t-185.5 -128.5q137 -40 209 -115.5t72 -213.5v-3q0 -188 -168.5 -310t-472.5 -122q-364 0 -635 201l191 289
q220 -152 442 -152q114 0 177 35t63 100v2q0 129 -228 129h-295v293h297q96 0 145.5 34.5t49.5 96.5v2q0 60 -52.5 92.5t-150.5 32.5q-222 0 -430 -149z" />
    <glyph glyph-name="uni04DF" unicode="&#x4df;" horiz-adv-x="1187" 
d="M641 1212v291h332v-291h-332zM213 1212v291h330v-291h-330zM45 111l133 258q181 -101 391 -101q179 0 179 88v2q0 37 -38 58t-114 20h-264v238h260q71 0 102 20t31 62v2q0 38 -41 59.5t-117 20.5q-192 0 -370 -103l-140 250q229 148 529 148q244 0 383 -88t139 -236v-2
q0 -175 -197 -246q219 -65 219 -254v-2q0 -150 -147 -241t-401 -91q-306 0 -537 138z" />
    <glyph glyph-name="uni04E2" unicode="&#x4e2;" horiz-adv-x="1607" 
d="M395 1546v240h815v-240h-815zM1481 0h-398v817l-610 -817h-346v1434h397v-787l590 787h367v-1434z" />
    <glyph glyph-name="uni04E3" unicode="&#x4e3;" horiz-adv-x="1327" 
d="M279 1219v233h768v-233h-768zM104 0v1108h383v-541l381 541h355v-1108h-383v557l-389 -557h-347z" />
    <glyph glyph-name="uni04E4" unicode="&#x4e4;" horiz-adv-x="1607" 
d="M860 1532v283h338v-283h-338zM408 1532v283h337v-283h-337zM1481 0h-398v817l-610 -817h-346v1434h397v-787l590 787h367v-1434z" />
    <glyph glyph-name="uni04E5" unicode="&#x4e5;" horiz-adv-x="1327" 
d="M711 1204v291h331v-291h-331zM283 1204v291h329v-291h-329zM104 0v1108h383v-541l381 541h355v-1108h-383v557l-389 -557h-347z" />
    <glyph glyph-name="uni04E6" unicode="&#x4e6;" horiz-adv-x="1701" 
d="M907 1552v283h338v-283h-338zM455 1552v283h338v-283h-338zM850 -29q-163 0 -306.5 58.5t-245 158.5t-160 236.5t-58.5 288.5v4q0 152 59.5 289.5t161.5 237.5t246 159t307 59q217 0 394 -99.5t276.5 -269t99.5 -372.5v-4q0 -152 -59.5 -290t-161.5 -238t-246 -159
t-307 -59zM854 330q159 0 261 112t102 271v4q0 161 -103 274t-264 113t-263 -112t-102 -271v-4q0 -158 104.5 -272.5t264.5 -114.5z" />
    <glyph glyph-name="uni04E7" unicode="&#x4e7;" horiz-adv-x="1343" 
d="M721 1212v291h332v-291h-332zM293 1212v291h330v-291h-330zM670 -27q-129 0 -243 45.5t-194 123t-126 183.5t-46 224v4q0 118 46.5 224.5t127 184.5t195 124.5t244.5 46.5q173 0 313.5 -78t218.5 -210t78 -288v-4q0 -157 -79 -290t-220.5 -211.5t-314.5 -78.5zM674 303
q103 0 168 71.5t65 174.5v4q0 105 -67 178.5t-170 73.5q-104 0 -168 -71.5t-64 -176.5v-4q0 -103 67.5 -176.5t168.5 -73.5z" />
    <glyph glyph-name="uni04E8" unicode="&#x4e8;" horiz-adv-x="1679" 
d="M838 -29q-161 0 -302.5 58.5t-241 158.5t-157 236.5t-57.5 288.5v4q0 153 58 290t158 237t242.5 159t303.5 59q216 0 391 -99.5t272 -269t97 -372.5v-4q0 -153 -58 -290.5t-158.5 -237.5t-243 -159t-304.5 -59zM842 303q138 0 236 71.5t134 194.5h-743
q36 -123 134.5 -194.5t238.5 -71.5zM838 1130q-135 0 -233 -70t-134 -188h737q-36 118 -135 188t-235 70z" />
    <glyph glyph-name="uni04E9" unicode="&#x4e9;" horiz-adv-x="1325" 
d="M662 -27q-129 0 -242 46t-191 124.5t-123 184t-45 221.5v4q0 118 45.5 224.5t124.5 185t192.5 124.5t242.5 46q128 0 240 -46t190.5 -123.5t124 -183.5t45.5 -223v-4q0 -116 -45.5 -222.5t-124.5 -185t-192.5 -125.5t-241.5 -47zM666 268q89 0 153 48t88 128h-487
q25 -82 90.5 -129t155.5 -47zM662 838q-91 0 -155.5 -47t-88.5 -127h489q-26 80 -92.5 127t-152.5 47z" />
    <glyph glyph-name="uni04EE" unicode="&#x4ee;" horiz-adv-x="1527" 
d="M369 1546v240h815v-240h-815zM739 0h-444l274 483l-553 951h453l319 -578l299 578h445z" />
    <glyph glyph-name="uni04EF" unicode="&#x4ef;" horiz-adv-x="1282" 
d="M651 440l209 668h400l-406 -1081q-75 -200 -166.5 -280.5t-255.5 -80.5q-185 0 -354 96l119 273q97 -60 170 -60q57 0 92 45l-434 1088h405zM264 1219v233h768v-233h-768z" />
    <glyph glyph-name="uni04F0" unicode="&#x4f0;" horiz-adv-x="1527" 
d="M834 1532v283h337v-283h-337zM381 1532v283h338v-283h-338zM739 0h-444l274 483l-553 951h453l319 -578l299 578h445z" />
    <glyph glyph-name="uni04F1" unicode="&#x4f1;" horiz-adv-x="1282" 
d="M651 440l209 668h400l-406 -1081q-75 -200 -166.5 -280.5t-255.5 -80.5q-185 0 -354 96l119 273q97 -60 170 -60q57 0 92 45l-434 1088h405zM696 1204v291h332v-291h-332zM268 1204v291h330v-291h-330z" />
    <glyph glyph-name="uni04F2" unicode="&#x4f2;" horiz-adv-x="1527" 
d="M739 0h-444l274 483l-553 951h453l319 -578l299 578h445zM821 1532l127 201l-268 -201h-262l211 332l334 -111l69 111l344 -113l-293 -219h-262z" />
    <glyph glyph-name="uni04F3" unicode="&#x4f3;" horiz-adv-x="1282" 
d="M651 440l209 668h400l-406 -1081q-75 -200 -166.5 -280.5t-255.5 -80.5q-185 0 -354 96l119 273q97 -60 170 -60q57 0 92 45l-434 1088h405zM297 1204l199 379l333 -115l62 113l342 -117l-295 -260h-248l131 248l-276 -248h-248z" />
    <glyph glyph-name="uni04F4" unicode="&#x4f4;" horiz-adv-x="1484" 
d="M961 0v432q-169 -31 -287 -31q-281 0 -426.5 136.5t-145.5 394.5v502h398v-449q0 -118 55.5 -170.5t177.5 -52.5q127 0 228 26v646h397v-1434h-397zM786 1532v283h338v-283h-338zM334 1532v283h338v-283h-338z" />
    <glyph glyph-name="uni04F5" unicode="&#x4f5;" horiz-adv-x="1265" 
d="M670 1204v291h331v-291h-331zM242 1204v291h329v-291h-329zM772 0v301q-105 -25 -217 -25q-111 0 -195 23t-148 74t-97 137.5t-33 206.5v391h385v-354q0 -74 39.5 -107t122.5 -33q79 0 143 21v473h389v-1108h-389z" />
    <glyph glyph-name="uni04F8" unicode="&#x4f8;" horiz-adv-x="2015" 
d="M127 0v1434h397v-428h211q279 0 440.5 -126t161.5 -366v-4q0 -239 -163.5 -374.5t-450.5 -135.5h-596zM1491 0v1434h397v-1434h-397zM524 330h189q106 0 167.5 47t61.5 133v4q0 86 -58.5 131t-168.5 45h-191v-360zM1061 1532v283h338v-283h-338zM608 1532v283h338v-283
h-338z" />
    <glyph glyph-name="uni04F9" unicode="&#x4f9;" horiz-adv-x="1767" 
d="M930 1204v291h332v-291h-332zM502 1204v291h329v-291h-329zM489 1108v-289h183q233 0 361 -105t128 -296v-2q0 -184 -133.5 -300t-372.5 -116h-551v1108h385zM487 543v-256h140q74 0 115.5 34t41.5 97v2q0 56 -40 90t-115 33h-142zM1274 0v1108h389v-1108h-389z" />
    <glyph glyph-name="baht" unicode="&#xe3f;" horiz-adv-x="1341" 
d="M659 1597h187l-19 -165q198 -8 316.5 -102t118.5 -263v-6q0 -217 -222 -316q123 -55 186.5 -131.5t63.5 -207.5v-7q0 -193 -138.5 -296t-387.5 -103h-92l-23 -233h-186l22 233h-387v1434h543zM754 604h-27l-33 -315h62q94 0 145 41t51 119v2q0 74 -50 114t-148 39z
M426 840h162l30 305h-192v-305zM930 993v2q0 130 -146 148l-30 -303q176 9 176 153zM426 289h102l33 315h-135v-315z" />
    <glyph glyph-name="Wgrave" unicode="&#x1e80;" horiz-adv-x="2287" 
d="M1298 1532h-290l-303 219l370 113zM510 -10l-479 1444h420l249 -830l277 834h342l276 -834l250 830h412l-479 -1444h-346l-287 825l-289 -825h-346z" />
    <glyph glyph-name="wgrave" unicode="&#x1e81;" horiz-adv-x="1763" 
d="M365 -8l-338 1116h379l145 -557l172 561h319l172 -565l150 561h375l-342 -1116h-336l-180 577l-185 -577h-331zM758 1204l-301 260l360 117l211 -377h-270z" />
    <glyph glyph-name="Wacute" unicode="&#x1e82;" horiz-adv-x="2287" 
d="M991 1532l221 332l371 -113l-303 -219h-289zM510 -10l-479 1444h420l249 -830l277 834h342l276 -834l250 830h412l-479 -1444h-346l-287 825l-289 -825h-346z" />
    <glyph glyph-name="wacute" unicode="&#x1e83;" horiz-adv-x="1763" 
d="M731 1204l213 377l361 -117l-304 -260h-270zM365 -8l-338 1116h379l145 -557l172 561h319l172 -565l150 561h375l-342 -1116h-336l-180 577l-185 -577h-331z" />
    <glyph glyph-name="Wdieresis" unicode="&#x1e84;" horiz-adv-x="2287" 
d="M1200 1532v283h338v-283h-338zM748 1532v283h337v-283h-337zM510 -10l-479 1444h420l249 -830l277 834h342l276 -834l250 830h412l-479 -1444h-346l-287 825l-289 -825h-346z" />
    <glyph glyph-name="wdieresis" unicode="&#x1e85;" horiz-adv-x="1763" 
d="M930 1204v291h332v-291h-332zM502 1204v291h329v-291h-329zM365 -8l-338 1116h379l145 -557l172 561h319l172 -565l150 561h375l-342 -1116h-336l-180 577l-185 -577h-331z" />
    <glyph glyph-name="Ygrave" unicode="&#x1ef2;" horiz-adv-x="1480" 
d="M543 0v537l-547 897h453l294 -523l297 523h445l-545 -891v-543h-397zM895 1532h-291l-303 219l371 113z" />
    <glyph glyph-name="ygrave" unicode="&#x1ef3;" horiz-adv-x="1282" 
d="M651 440l209 668h400l-406 -1081q-75 -200 -166.5 -280.5t-255.5 -80.5q-185 0 -354 96l119 273q97 -60 170 -60q57 0 92 45l-434 1088h405zM524 1204l-301 260l361 117l211 -377h-271z" />
    <glyph glyph-name="enspace" unicode="&#x2002;" horiz-adv-x="1024" 
 />
    <glyph glyph-name="emspace" unicode="&#x2003;" horiz-adv-x="2048" 
 />
    <glyph glyph-name="threeperemspace" unicode="&#x2004;" horiz-adv-x="681" 
 />
    <glyph glyph-name="fourperemspace" unicode="&#x2005;" horiz-adv-x="512" 
 />
    <glyph glyph-name="figurespace" unicode="&#x2007;" horiz-adv-x="1228" 
 />
    <glyph glyph-name="thinspace" unicode="&#x2009;" horiz-adv-x="272" 
 />
    <glyph glyph-name="hairspace" unicode="&#x200a;" horiz-adv-x="153" 
 />
    <glyph glyph-name="endash" unicode="&#x2013;" horiz-adv-x="1081" 
d="M82 475v332h917v-332h-917z" />
    <glyph glyph-name="emdash" unicode="&#x2014;" horiz-adv-x="1839" 
d="M82 475v332h1675v-332h-1675z" />
    <glyph glyph-name="quoteleft" unicode="&#x2018;" horiz-adv-x="581" 
d="M82 702v326q0 112 29 192t86 127t131.5 70t173.5 27l33 -150q-105 -11 -157 -59.5t-48 -132.5h155v-400h-403z" />
    <glyph glyph-name="quoteright" unicode="&#x2019;" horiz-adv-x="581" 
d="M80 692l-31 150q106 12 157 59.5t48 132.5h-158v400h404v-326q0 -111 -29 -191.5t-85.5 -128.5t-131.5 -71t-174 -25z" />
    <glyph glyph-name="quotesinglbase" unicode="&#x201a;" horiz-adv-x="579" 
d="M72 -342l-31 149q105 10 156.5 59t48.5 134h-158v399h404v-325q0 -111 -29 -191.5t-85.5 -128.5t-131.5 -71t-174 -25z" />
    <glyph glyph-name="quotedblleft" unicode="&#x201c;" horiz-adv-x="1120" 
d="M627 702v326q0 111 28 191t83.5 127.5t129 70.5t172.5 27l33 -150q-207 -21 -201 -192h152v-400h-397zM82 702v326q0 217 106 312.5t310 103.5l30 -150q-104 -10 -153.5 -58.5t-44.5 -133.5h151v-400h-399z" />
    <glyph glyph-name="quotedblright" unicode="&#x201d;" horiz-adv-x="1120" 
d="M625 692l-33 150q207 24 201 192h-152v400h397v-326q0 -406 -413 -416zM80 692l-31 150q104 12 153.5 59.5t45.5 132.5h-152v400h400v-326q0 -406 -416 -416z" />
    <glyph glyph-name="quotedblbase" unicode="&#x201e;" horiz-adv-x="1118" 
d="M616 -342l-32 149q206 21 200 193h-151v399h397v-325q0 -215 -106.5 -313t-307.5 -103zM72 -342l-31 149q104 10 154 59t45 134h-152v399h399v-325q0 -216 -106.5 -313.5t-308.5 -102.5z" />
    <glyph glyph-name="dagger" unicode="&#x2020;" horiz-adv-x="837" 
d="M317 457l21 553l-256 -25v211l254 -27l-33 265h229l-30 -265l254 27v-211l-256 25l20 -553h-203z" />
    <glyph glyph-name="daggerdbl" unicode="&#x2021;" horiz-adv-x="878" 
d="M324 0l32 264l-254 -24v211l256 -27l-26 293l26 293l-256 -25v211l254 -27l-32 265h229l-31 -265l254 27v-211l-258 25l27 -293l-27 -293l258 27v-211l-254 24l31 -264h-229z" />
    <glyph glyph-name="bullet" unicode="&#x2022;" horiz-adv-x="1024" 
d="M512 375q-141 0 -243.5 101.5t-102.5 242.5v4q0 142 102 243t244 101t244 -101t102 -243v-4q0 -141 -102.5 -242.5t-243.5 -101.5z" />
    <glyph glyph-name="ellipsis" unicode="&#x2026;" horiz-adv-x="1718" 
d="M1235 0v393h395v-393h-395zM662 0v393h395v-393h-395zM88 0v393h395v-393h-395z" />
    <glyph glyph-name="perthousand" unicode="&#x2030;" horiz-adv-x="2652" 
d="M442 907q53 0 86 44.5t33 113.5v4q0 70 -34 116t-87 46t-85.5 -45t-32.5 -115v-4q0 -68 34.5 -114t85.5 -46zM440 684q-161 0 -264.5 110.5t-103.5 270.5v4q0 162 103 273.5t267 111.5q163 0 266 -110t103 -273v-4q0 -159 -104.5 -271t-266.5 -112zM1612 1434l-611 -781
l-495 -653h-277l605 772l501 662h277zM1401 205q53 0 86 44.5t33 112.5v5q0 70 -34 115.5t-87 45.5q-55 0 -87 -44.5t-32 -114.5v-4q0 -67 35 -113.5t86 -46.5zM1399 -20q-162 0 -265.5 111.5t-103.5 270.5v5q0 162 103.5 273.5t267.5 111.5q163 0 265.5 -110t102.5 -273v-4
q0 -160 -104 -272.5t-266 -112.5zM2212 205q53 0 86 44.5t33 112.5v5q0 70 -33.5 115.5t-87.5 45.5q-55 0 -87 -44.5t-32 -114.5v-4q0 -67 35 -113.5t86 -46.5zM2210 -20q-162 0 -265.5 111.5t-103.5 270.5v5q0 162 103.5 273.5t267.5 111.5q163 0 265.5 -110t102.5 -273v-4
q0 -160 -104 -272.5t-266 -112.5z" />
    <glyph glyph-name="guilsinglleft" unicode="&#x2039;" horiz-adv-x="731" 
d="M418 68l-357 432v98l357 434l252 -125l-242 -356l242 -356z" />
    <glyph glyph-name="guilsinglright" unicode="&#x203a;" horiz-adv-x="731" 
d="M315 68l-252 125l240 356l-240 354l252 127l355 -432v-98z" />
    <glyph glyph-name="fraction" unicode="&#x2044;" horiz-adv-x="204" 
d="M-469 0l524 750l449 684h170l-522 -750l-451 -684h-170z" />
    <glyph glyph-name="zero.sup" unicode="&#x2070;" 
d="M408 831q-153 0 -246.5 114t-93.5 302v17q0 190 94.5 303.5t249.5 113.5q152 0 247 -113.5t95 -301.5v-17q0 -188 -96.5 -303t-249.5 -115zM410 1489q-56 0 -87.5 -52t-31.5 -159v-43q0 -105 31.5 -157t87.5 -52t88 51.5t32 157.5v43q0 104 -33 157.5t-87 53.5z" />
    <glyph glyph-name="four.sup" unicode="&#x2074;" 
d="M666 1001v-151h-215v151h-365l-25 185l355 481h250v-502h98v-164h-98zM457 1161v285l-209 -285h209z" />
    <glyph glyph-name="five.sup" unicode="&#x2075;" 
d="M399 834q-186 0 -336 120l117 156q113 -86 213 -86q51 0 83 26t32 68q0 43 -32.5 67.5t-88.5 24.5q-79 0 -131 -34l-139 71l35 412h538v-189h-368l-13 -122q56 20 144 20q121 0 198.5 -64t77.5 -182q0 -137 -90 -212.5t-240 -75.5z" />
    <glyph glyph-name="six.sup" unicode="&#x2076;" 
d="M420 831q-147 0 -236 89q-106 106 -106 311v6q0 211 98.5 327.5t282.5 116.5q143 0 246 -71l-87 -172q-78 55 -157 55q-66 0 -107 -44t-47 -122q75 47 174 47q106 0 180 -63t74 -185q0 -137 -88.5 -216t-226.5 -79zM414 1006q49 0 77.5 30t28.5 78q0 49 -28 79t-78 30
q-53 0 -81 -29t-28 -80v-2q0 -46 30 -76.5t79 -29.5z" />
    <glyph glyph-name="seven.sup" unicode="&#x2077;" 
d="M375 848h-248l342 612h-365v199h619v-176z" />
    <glyph glyph-name="eight.sup" unicode="&#x2078;" 
d="M410 831q-145 0 -235.5 67t-90.5 177q0 135 133 197q-111 62 -111 180q0 100 83.5 164.5t220.5 64.5q135 0 219 -64t84 -165q0 -111 -111 -180q65 -32 99 -77.5t34 -119.5q0 -111 -90.5 -177.5t-234.5 -66.5zM410 1518q-46 0 -73.5 -26t-27.5 -65q0 -42 28 -68t73 -26
q43 0 71.5 26t28.5 68q0 38 -28.5 64.5t-71.5 26.5zM410 1192q-50 0 -82.5 -27t-32.5 -71q0 -43 30.5 -71t84.5 -28q53 0 82.5 27.5t29.5 71.5t-31 71t-81 27z" />
    <glyph glyph-name="nine.sup" unicode="&#x2079;" 
d="M399 1681q150 0 238 -88q104 -104 104 -309v-8q0 -210 -96.5 -327.5t-279.5 -117.5q-145 0 -265 82l86 170q77 -61 172 -61q66 0 107.5 41.5t52.5 116.5q-85 -47 -176 -47q-69 0 -125.5 25t-94.5 83t-38 141q0 137 90 218t225 81zM408 1284q52 0 79 30t27 81v2
q0 49 -29 80t-77 30q-49 0 -78 -31t-29 -81q0 -49 28.5 -80t78.5 -31z" />
    <glyph glyph-name="zero.inf" unicode="&#x2080;" 
d="M408 -289q-153 0 -246.5 114t-93.5 302v16q0 190 95 304t249 114q152 0 247 -114t95 -302v-16q0 -188 -96.5 -303t-249.5 -115zM410 369q-56 0 -87.5 -52t-31.5 -159v-43q0 -105 31.5 -157t87.5 -52t88 51.5t32 157.5v43q0 104 -33 157.5t-87 53.5z" />
    <glyph glyph-name="one.inf" unicode="&#x2081;" horiz-adv-x="665" 
d="M498 -266h-226v600l-155 -49l-54 176l269 90h166v-817z" />
    <glyph glyph-name="two.inf" unicode="&#x2082;" 
d="M92 -266v178l299 233q55 42 78 73t23 67q0 35 -25 56t-64 21q-79 0 -167 -102l-148 129q65 84 142 127t188 43q136 0 218.5 -69.5t82.5 -180.5q0 -87 -39 -145t-131 -125l-158 -119h334v-186h-633z" />
    <glyph glyph-name="three.inf" unicode="&#x2083;" 
d="M403 -289q-207 0 -342 129l123 148q101 -88 209 -88q48 0 78.5 23t30.5 63q0 84 -137 84h-97l-30 116l204 168h-323v185h588v-164l-215 -170q104 -13 167.5 -68t63.5 -155q0 -123 -89.5 -197t-230.5 -74z" />
    <glyph glyph-name="four.inf" unicode="&#x2084;" 
d="M666 -119v-151h-215v151h-365l-25 185l355 481h250v-502h98v-164h-98zM457 41v285l-209 -285h209z" />
    <glyph glyph-name="five.inf" unicode="&#x2085;" 
d="M399 -287q-185 0 -336 121l117 156q113 -86 213 -86q51 0 83 26t32 68q0 43 -32.5 67.5t-88.5 24.5q-78 0 -131 -35l-139 72l35 412h538v-189h-368l-13 -123q58 21 144 21q121 0 198.5 -64t77.5 -182q0 -137 -90.5 -213t-239.5 -76z" />
    <glyph glyph-name="six.inf" unicode="&#x2086;" 
d="M420 -289q-148 0 -236 88q-106 106 -106 312v6q0 211 98.5 327.5t282.5 116.5q142 0 246 -72l-87 -172q-80 56 -157 56q-66 0 -107 -44t-47 -122q75 47 174 47q106 0 180 -63t74 -185q0 -137 -88.5 -216t-226.5 -79zM414 -115q49 0 77.5 30.5t28.5 78.5t-28 78t-78 30
q-53 0 -81 -29t-28 -79v-2q0 -46 30 -77t79 -30z" />
    <glyph glyph-name="seven.inf" unicode="&#x2087;" 
d="M375 -272h-248l342 612h-365v199h619v-177z" />
    <glyph glyph-name="eight.inf" unicode="&#x2088;" 
d="M410 -289q-145 0 -235.5 67t-90.5 177q0 135 133 197q-111 62 -111 180q0 100 83.5 164.5t220.5 64.5q135 0 219 -64t84 -165q0 -111 -111 -180q65 -32 99 -77.5t34 -119.5q0 -111 -90.5 -177.5t-234.5 -66.5zM410 397q-46 0 -73.5 -25.5t-27.5 -64.5q0 -42 28 -68
t73 -26q43 0 71.5 26t28.5 68q0 38 -28.5 64t-71.5 26zM410 72q-50 0 -82.5 -27.5t-32.5 -71.5q0 -43 30.5 -70.5t84.5 -27.5q53 0 82.5 27t29.5 71t-31 71.5t-81 27.5z" />
    <glyph glyph-name="nine.inf" unicode="&#x2089;" 
d="M399 561q150 0 238 -88q104 -104 104 -309v-8q0 -210 -96.5 -327.5t-279.5 -117.5q-145 0 -265 82l86 170q77 -61 172 -61q66 0 107.5 41t52.5 116q-85 -47 -176 -47q-51 0 -96 15t-82 44.5t-58.5 78.5t-21.5 112q0 137 90 218t225 81zM408 164q52 0 79 29.5t27 80.5v2
q0 49 -29 80.5t-77 30.5q-49 0 -78 -31.5t-29 -81.5q0 -49 28.5 -79.5t78.5 -30.5z" />
    <glyph glyph-name="colonmonetary" unicode="&#x20a1;" horiz-adv-x="1290" 
d="M924 1597h151l-28 -215q108 -43 200 -129l-157 -292q-46 46 -95 83l-88 -708q66 29 160 123l190 -236q-158 -176 -380 -217l-29 -239h-152l29 229q-82 4 -121 12l-29 -241h-151l35 284q-181 77 -290.5 245.5t-109.5 401.5v15q0 291 159.5 483.5t410.5 230.5l22 170h152
l-21 -159q54 -3 119 -13zM733 1124l-98 -798q70 -17 131 -17h10l98 799q-56 18 -114 18q-21 0 -27 -2zM410 711v-17q0 -202 104 -301l86 697q-91 -45 -140.5 -142t-49.5 -237z" />
    <glyph glyph-name="naira" unicode="&#x20a6;" horiz-adv-x="1781" 
d="M1743 385h-207v-385h-403l-232 385h-299v-385h-354v385h-207v199h207v274h-207v199h207v377h426l221 -377h285v377h356v-377h207v-199h-207v-274h207v-199zM596 909v-340h209l-197 340h-12zM1176 557h12v315h-197z" />
    <glyph glyph-name="rupee" unicode="&#x20a8;" horiz-adv-x="2238" 
d="M111 0v1434h542q261 0 408 -126t147 -354v-10q0 -297 -250 -420l289 -524h-411l-238 444h-125v-444h-362zM1763 -25q-258 0 -477 142l127 248q185 -119 350 -119q47 0 73 16t26 45v4q0 31 -30.5 50.5t-135.5 56.5q-94 31 -155 59.5t-113 69t-76.5 95t-24.5 126.5v4
q0 165 118.5 260.5t305.5 95.5q227 0 408 -108l-107 -256q-169 96 -305 96q-46 0 -71 -16t-25 -43v-4q0 -28 33.5 -49.5t136.5 -57.5q77 -27 128.5 -49t100.5 -52.5t76.5 -64t44 -80t16.5 -104.5v-4q0 -165 -118.5 -263t-305.5 -98zM473 737h164q95 0 150 49t55 138v8
q0 93 -55 138.5t-152 45.5h-162v-379z" />
    <glyph glyph-name="won" unicode="&#x20a9;" horiz-adv-x="2314" 
d="M2204 1434l-103 -398h170v-209h-223l-55 -223h268v-209h-322l-102 -403h-438l-103 409h-278l-103 -409h-438l-102 403h-322v209h269l-56 223h-223v209h170l-100 398h419l76 -398h248l94 402h424l94 -402h246l78 398h412zM1151 993l-96 -403h202l-94 403h-12zM1597 438h13
l78 410h-187zM713 438h12l94 410h-184z" />
    <glyph glyph-name="sheqel" unicode="&#x20aa;" horiz-adv-x="1310" 
d="M463 303l-41 356h168l31 -221q11 -80 55.5 -117.5t130.5 -37.5h154v825h251v-1108h-417q-298 0 -332 303zM700 449v221q0 155 -157 155h-191v-825h-252v1108h492q130 0 203 -73t73 -204v-382h-168z" />
    <glyph glyph-name="Euro" unicode="&#x20ac;" horiz-adv-x="1396" 
d="M1358 1231l-254 -236q-95 127 -238 127q-154 0 -223 -141h322v-209h-367q-2 -18 -2 -53v-2q0 -33 2 -47h367v-207h-324q65 -152 236 -152q73 0 129 34t112 101l244 -229q-92 -121 -213 -183.5t-287 -62.5q-243 0 -404.5 132t-215.5 354h-164v213h137v45v2q0 34 2 57h-139
v211h172q57 212 218 344.5t398 132.5q311 0 492 -231z" />
    <glyph glyph-name="peso" unicode="&#x20b1;" horiz-adv-x="1595" 
d="M248 0v793h-207v192h207v449h543q251 0 408.5 -120t182.5 -329h189v-192h-193q-32 -210 -198 -327.5t-410 -117.5h-129v-348h-393zM635 639h129q96 0 156.5 45t78.5 125h-364v-170zM635 1133v-162h364q-17 78 -78 120t-159 42h-127z" />
    <glyph glyph-name="hryvnia" unicode="&#x20b4;" horiz-adv-x="1351" 
d="M66 858l16 127l582 -67q69 49 93.5 80.5t24.5 62.5q0 80 -116 80q-76 0 -152 -28.5t-178 -90.5l-164 268q125 85 253 128.5t284 43.5q223 0 348 -99.5t125 -258.5q0 -125 -92 -234l229 -26l-14 -127l-336 37l-127 -103l444 -51l-14 -127l-572 66l-10 -9
q-82 -58 -109.5 -90.5t-27.5 -66.5q0 -80 125 -80q151 0 362 137l164 -268q-270 -191 -565 -191q-232 0 -358.5 102t-126.5 257q0 137 112 258l-233 26l16 127l342 -39l127 103z" />
    <glyph glyph-name="numero" unicode="&#x2116;" horiz-adv-x="2326" 
d="M106 0v1434h347l477 -721v721h362v-1434h-325l-498 752v-752h-363zM1831 559q-181 0 -294.5 122.5t-113.5 313.5v13q0 192 114.5 314t297.5 122q180 0 294 -122.5t114 -313.5v-13q0 -192 -114.5 -314t-297.5 -122zM1833 795q63 0 100 52.5t37 143.5v17q0 91 -37.5 145.5
t-99.5 54.5q-63 0 -100 -52.5t-37 -143.5v-17q0 -91 37.5 -145.5t99.5 -54.5zM1462 238v208h740v-208h-740z" />
    <glyph glyph-name="published" unicode="&#x2117;" horiz-adv-x="1699" 
d="M848 -29q-153 0 -290.5 60t-235.5 160.5t-155.5 237t-57.5 284.5v4q0 149 58 286t156.5 238t237 161t291.5 60t290.5 -59.5t235.5 -160t155.5 -237t57.5 -284.5v-4q0 -149 -58 -286t-156.5 -238.5t-237 -161.5t-291.5 -60zM848 55q138 0 260.5 53t209 142t137 211
t50.5 256v4q0 179 -85 330t-235.5 240t-332.5 89q-138 0 -260.5 -53t-209 -142.5t-137 -211.5t-50.5 -256v-4q0 -133 50 -254.5t136 -210t208 -141t259 -52.5zM559 336v788h340q151 0 239.5 -73.5t88.5 -202.5v-4q0 -134 -94 -208.5t-244 -74.5h-109v-225h-221zM780 733h103
q57 0 91 28t34 75v4q0 49 -33.5 75.5t-93.5 26.5h-101v-209z" />
    <glyph glyph-name="servicemark" unicode="&#x2120;" horiz-adv-x="1437" 
d="M698 803v631h187l149 -244l152 244h184v-631h-174v371l-160 -252h-6l-160 252v-371h-172zM340 791q-182 0 -307 106l94 115q103 -80 221 -80q82 0 82 47q0 22 -21.5 33.5t-91.5 29.5q-48 11 -80 21t-67.5 26t-56 35.5t-34 48.5t-13.5 66q0 93 66.5 150t186.5 57
q166 0 269 -86l-88 -121q-92 66 -187 66q-35 0 -54 -13.5t-19 -34.5q0 -23 24 -36t90 -27q124 -26 188 -70.5t64 -126.5q0 -97 -71.5 -151.5t-194.5 -54.5z" />
    <glyph glyph-name="trademark" unicode="&#x2122;" horiz-adv-x="1423" 
d="M686 803v631h184l152 -244l149 244h185v-631h-172v371l-160 -252h-8l-160 252v-371h-170zM221 803v477h-186v154h551v-154h-189v-477h-176z" />
    <glyph glyph-name="Omega" unicode="&#x2126;" horiz-adv-x="1736" 
d="M872 1462q175 0 318.5 -51t237.5 -139.5t145 -206t51 -252.5v-2q0 -294 -270 -494l303 2v-319h-682v315q77 57 127 112t83.5 137t33.5 181v3q0 157 -94.5 256.5t-256.5 99.5q-161 0 -254.5 -99t-93.5 -257v-3q0 -140 62 -242.5t180 -187.5v-315h-680v319l299 -2
q-82 63 -137.5 127t-93 159.5t-37.5 209.5v2q0 130 52.5 247t147.5 206t240 141.5t319 52.5z" />
    <glyph glyph-name="onethird" unicode="&#x2153;" horiz-adv-x="1689" 
d="M1294 -23q-207 0 -342 129l123 148q101 -88 209 -88q48 0 78.5 23t30.5 63q0 84 -138 84h-96l-31 117l205 168h-323v184h587v-164l-215 -170q104 -13 168 -68t64 -155q0 -123 -89.5 -197t-230.5 -74zM496 629h-226v600l-155 -49l-54 176l269 90h166v-817zM205 0l524 750
l449 684h170l-523 -750l-450 -684h-170z" />
    <glyph glyph-name="twothirds" unicode="&#x2154;" horiz-adv-x="1843" 
d="M1448 -23q-207 0 -342 129l123 148q101 -88 209 -88q48 0 78 23t30 63q0 84 -137 84h-96l-31 117l205 168h-324v184h588v-164l-215 -170q104 -13 167.5 -68t63.5 -155q0 -123 -89 -197t-230 -74zM74 629v178l299 233q55 42 77.5 73t22.5 67q0 35 -24.5 56t-63.5 21
q-79 0 -168 -102l-147 129q65 84 141.5 127t187.5 43q136 0 218.5 -69.5t82.5 -180.5q0 -87 -39 -145t-131 -125l-157 -119h334v-186h-633zM350 0l524 750l449 684h170l-522 -750l-451 -684h-170z" />
    <glyph glyph-name="onefifth" unicode="&#x2155;" horiz-adv-x="1689" 
d="M1290 -20q-186 0 -336 120l117 156q113 -86 213 -86q51 0 83 26t32 68q0 43 -32.5 67.5t-88.5 24.5q-79 0 -131 -34l-139 71l34 412h539v-189h-369l-12 -122q56 20 143 20q121 0 199 -64t78 -182q0 -137 -90 -212.5t-240 -75.5zM496 629h-226v600l-155 -49l-54 176
l269 90h166v-817zM215 0l524 750l449 684h170l-522 -750l-451 -684h-170z" />
    <glyph glyph-name="twofifths" unicode="&#x2156;" horiz-adv-x="1843" 
d="M1444 -20q-186 0 -336 120l117 156q113 -86 213 -86q51 0 82.5 25.5t31.5 68.5t-32 67.5t-88 24.5q-80 0 -132 -34l-139 71l35 412h539v-189h-369l-12 -122q56 20 143 20q121 0 199 -64t78 -182q0 -137 -90 -212.5t-240 -75.5zM371 0l524 750l448 684h170l-522 -750
l-450 -684h-170zM74 629v178l299 233q55 42 77.5 73t22.5 67q0 35 -24.5 56t-63.5 21q-79 0 -168 -102l-147 129q65 84 141.5 127t187.5 43q136 0 218.5 -69.5t82.5 -180.5q0 -87 -39 -145t-131 -125l-157 -119h334v-186h-633z" />
    <glyph glyph-name="threefifths" unicode="&#x2157;" horiz-adv-x="1843" 
d="M1444 -20q-186 0 -336 120l117 156q113 -86 213 -86q51 0 82.5 25.5t31.5 68.5t-32 67.5t-88 24.5q-80 0 -132 -34l-139 71l35 412h539v-189h-369l-12 -122q56 20 143 20q121 0 199 -64t78 -182q0 -137 -90 -212.5t-240 -75.5zM340 0l524 750l449 684h170l-522 -750
l-451 -684h-170zM385 606q-207 0 -342 129l123 148q101 -88 209 -88q48 0 78 23t30 63q0 84 -137 84h-96l-31 116l205 168h-324v185h588v-164l-215 -170q104 -13 168 -68t64 -155q0 -123 -89.5 -197t-230.5 -74z" />
    <glyph glyph-name="fourfifths" unicode="&#x2158;" horiz-adv-x="1843" 
d="M647 776v-151h-215v151h-364l-25 185l354 481h250v-502h98v-164h-98zM438 936v285l-209 -285h209zM1444 -20q-186 0 -336 120l117 156q113 -86 213 -86q51 0 82.5 25.5t31.5 68.5t-32 67.5t-88 24.5q-80 0 -132 -34l-139 71l35 412h539v-189h-369l-12 -122q56 20 143 20
q121 0 199 -64t78 -182q0 -137 -90 -212.5t-240 -75.5zM371 0l524 750l448 684h170l-522 -750l-450 -684h-170z" />
    <glyph glyph-name="onesixth" unicode="&#x2159;" horiz-adv-x="1689" 
d="M1311 -23q-147 0 -236 89q-106 106 -106 311v6q0 211 98.5 327.5t282.5 116.5q79 0 135.5 -17t109.5 -54l-86 -172q-78 55 -157 55q-66 0 -107 -44t-47 -122q75 47 174 47q106 0 180 -63t74 -185q0 -137 -88.5 -216t-226.5 -79zM1305 152q49 0 77.5 30t28.5 78
q0 49 -28 79t-78 30q-53 0 -81 -29t-28 -80v-2q0 -46 30 -76.5t79 -29.5zM496 629h-226v600l-155 -49l-54 176l269 90h166v-817zM227 0l525 750l448 684h170l-522 -750l-451 -684h-170z" />
    <glyph glyph-name="fivesixths" unicode="&#x215a;" horiz-adv-x="1843" 
d="M1464 -23q-146 0 -235 89q-107 107 -107 311v6q0 211 98.5 327.5t282.5 116.5q143 0 246 -71l-86 -172q-78 55 -158 55q-66 0 -106.5 -44t-46.5 -122q75 47 174 47q106 0 180 -63t74 -185q0 -137 -89 -216t-227 -79zM1458 152q49 0 78 30t29 78t-28.5 78.5t-78.5 30.5
q-53 0 -80.5 -29t-27.5 -80v-2q0 -46 29.5 -76.5t78.5 -29.5zM350 0l524 750l449 684h170l-522 -750l-451 -684h-170zM381 608q-185 0 -336 121l117 156q113 -86 213 -86q51 0 82.5 25.5t31.5 68.5t-32 67.5t-88 24.5q-78 0 -131 -35l-140 72l35 412h539v-189h-369l-12 -123
q59 21 143 21q121 0 199 -64t78 -182q0 -137 -90.5 -213t-239.5 -76z" />
    <glyph glyph-name="oneeighth" unicode="&#x215b;" horiz-adv-x="1689" 
d="M1300 -23q-145 0 -235 67t-90 177q0 135 133 197q-111 62 -111 180q0 100 83 164.5t220 64.5q136 0 220 -64.5t84 -164.5q0 -111 -111 -180q65 -32 99 -77.5t34 -119.5q0 -111 -91 -177.5t-235 -66.5zM1300 664q-46 0 -73 -26t-27 -65q0 -42 27.5 -68t72.5 -26
q44 0 72.5 26t28.5 68q0 38 -29 64.5t-72 26.5zM1300 338q-50 0 -82 -27t-32 -71q0 -43 30 -71t84 -28q53 0 83 27.5t30 71.5t-31.5 71t-81.5 27zM496 629h-226v600l-155 -49l-54 176l269 90h166v-817zM221 0l524 750l449 684h170l-522 -750l-451 -684h-170z" />
    <glyph glyph-name="threeeighths" unicode="&#x215c;" horiz-adv-x="1843" 
d="M1454 -23q-145 0 -235.5 67t-90.5 177q0 135 134 197q-111 62 -111 180q0 100 83 164.5t220 64.5q135 0 219 -64t84 -165q0 -112 -110 -180q65 -32 99 -77.5t34 -119.5q0 -111 -91 -177.5t-235 -66.5zM1454 664q-46 0 -73 -26t-27 -65q0 -42 27.5 -68t72.5 -26
q43 0 71.5 26t28.5 68q0 38 -28.5 64.5t-71.5 26.5zM1454 338q-50 0 -82.5 -27t-32.5 -71q0 -43 30.5 -71t84.5 -28q53 0 83 27.5t30 71.5t-31.5 71t-81.5 27zM350 0l524 750l449 684h170l-522 -750l-451 -684h-170zM385 606q-207 0 -342 129l123 148q101 -88 209 -88
q48 0 78 23t30 63q0 84 -137 84h-96l-31 116l205 168h-324v185h588v-164l-215 -170q104 -13 168 -68t64 -155q0 -123 -89.5 -197t-230.5 -74z" />
    <glyph glyph-name="fiveeighths" unicode="&#x215d;" horiz-adv-x="1843" 
d="M1454 -23q-145 0 -235.5 67t-90.5 177q0 135 134 197q-111 62 -111 180q0 100 83 164.5t220 64.5q135 0 219 -64t84 -165q0 -112 -110 -180q65 -32 99 -77.5t34 -119.5q0 -111 -91 -177.5t-235 -66.5zM1454 664q-46 0 -73 -26t-27 -65q0 -42 27.5 -68t72.5 -26
q43 0 71.5 26t28.5 68q0 38 -28.5 64.5t-71.5 26.5zM1454 338q-50 0 -82.5 -27t-32.5 -71q0 -43 30.5 -71t84.5 -28q53 0 83 27.5t30 71.5t-31.5 71t-81.5 27zM350 0l524 750l449 684h170l-522 -750l-451 -684h-170zM381 608q-185 0 -336 121l117 156q113 -86 213 -86
q51 0 82.5 25.5t31.5 68.5t-32 67.5t-88 24.5q-78 0 -131 -35l-140 72l35 412h539v-189h-369l-12 -123q59 21 143 21q121 0 199 -64t78 -182q0 -137 -90.5 -213t-239.5 -76z" />
    <glyph glyph-name="seveneighths" unicode="&#x215e;" horiz-adv-x="1843" 
d="M1454 -23q-145 0 -235.5 67t-90.5 177q0 135 134 197q-111 62 -111 180q0 100 83 164.5t220 64.5q135 0 219 -64t84 -165q0 -112 -110 -180q65 -32 99 -77.5t34 -119.5q0 -111 -91 -177.5t-235 -66.5zM1454 664q-46 0 -73 -26t-27 -65q0 -42 27.5 -68t72.5 -26
q43 0 71.5 26t28.5 68q0 38 -28.5 64.5t-71.5 26.5zM1454 338q-50 0 -82.5 -27t-32.5 -71q0 -43 30.5 -71t84.5 -28q53 0 83 27.5t30 71.5t-31.5 71t-81.5 27zM375 625h-248l342 610h-365v199h619v-177zM289 0l524 750l449 684h170l-523 -750l-450 -684h-170z" />
    <glyph glyph-name="Delta" unicode="&#x2206;" horiz-adv-x="1613" 
d="M98 0l-45 301l539 1143h430l539 -1143l-45 -301h-1418zM494 344h614l-305 705z" />
    <glyph glyph-name="minus" unicode="&#x2212;" horiz-adv-x="1310" 
d="M1194 549h-1077v344h1077v-344z" />
    <glyph glyph-name="NUL" horiz-adv-x="0" 
 />
    <glyph glyph-name="CR" horiz-adv-x="567" 
 />
    <glyph glyph-name="Q.alt" horiz-adv-x="1701" 
d="M1245 -182l-182 182q-115 -27 -213 -27q-163 0 -306.5 58t-245 157t-160 236t-58.5 289v4q0 152 59.5 289.5t161.5 237.5t246 159t307 59q217 0 394 -99.5t276.5 -269t99.5 -372.5v-4q0 -147 -53.5 -278t-151.5 -232l371 -381v-8h-545zM854 330q159 0 261 112t102 271v4
q0 161 -103 274t-264 113t-263 -112t-102 -271v-4q0 -158 104.5 -272.5t264.5 -114.5z" />
    <glyph glyph-name="a.alt" horiz-adv-x="1384" 
d="M555 -25q-98 0 -187.5 40.5t-157 113t-107.5 182t-40 238.5v4q0 131 39.5 241.5t107 184t156.5 114t187 40.5q201 0 338 -160v135h389v-1108h-389v147q-67 -81 -144.5 -126.5t-191.5 -45.5zM672 301q96 0 161.5 71.5t65.5 180.5v4q0 109 -65.5 180.5t-161.5 71.5
q-94 0 -161 -72t-67 -180v-4q0 -108 67 -180t161 -72z" />
    <glyph glyph-name="uni039E.alt" horiz-adv-x="1538" 
d="M1460 328v-328h-1382v328h504v241h-447v308h447v229h-494v328h1362v-328h-496v-229h449v-308h-449v-241h506z" />
    <glyph glyph-name="uni0424.bgr" horiz-adv-x="2019" 
d="M811 -205v201q-166 12 -303.5 71.5t-231 154t-145 221t-51.5 270.5v4q0 294 198.5 493t532.5 228v200h397v-200q166 -12 304.5 -71.5t232.5 -153.5t145.5 -220.5t51.5 -271.5v-4q0 -295 -201.5 -495.5t-532.5 -225.5v-201h-397zM1546 713v4q0 151 -93 254.5t-257 120.5
v-748q167 13 258.5 114t91.5 255zM475 721v-4q0 -152 92 -254t258 -119v746q-169 -17 -259.5 -116.5t-90.5 -252.5z" />
    <glyph glyph-name="uni0432.bgr" horiz-adv-x="1349" 
d="M715 -29q-141 0 -254 35.5t-197.5 107.5t-130 190t-45.5 274v340q0 281 156.5 438t449.5 157q255 0 400 -119t145 -304v-3q0 -132 -66.5 -218t-183.5 -126q301 -82 301 -356v-2q0 -184 -157 -299t-418 -115zM717 287q90 0 141 44.5t51 114.5v3q0 79 -66 123.5t-206 43.5
h-170v-47q0 -140 64 -211t186 -71zM467 930v-70h160q116 0 177.5 47t61.5 133v2q0 67 -47 112t-133 44q-108 0 -163.5 -70.5t-55.5 -197.5z" />
    <glyph glyph-name="uni0433.bgr" horiz-adv-x="1089" 
d="M481 -25q-202 0 -314 89.5t-112 250.5v2q0 139 93.5 223t308.5 152q125 38 168 59t43 50v2q0 57 -88 57q-75 0 -174 -31.5t-195 -83.5l-125 248q112 63 244.5 100t259.5 37q208 0 318 -89.5t110 -249.5v-3q0 -74 -23.5 -128.5t-78 -96.5t-123 -72.5t-179.5 -66.5
q-132 -43 -170 -65t-38 -52v-2q0 -57 94 -57q88 0 197.5 37.5t215.5 103.5l136 -237q-266 -177 -568 -177z" />
    <glyph glyph-name="uni0434.bgr" horiz-adv-x="1384" 
d="M649 -332q-302 0 -553 127l125 258q191 -104 387 -104q289 0 289 272v43q-70 -78 -149 -122t-191 -44q-137 0 -248.5 61.5t-178.5 180t-67 272.5v4q0 116 39.5 214.5t105.5 164t153 102t182 36.5q118 0 198 -40.5t150 -115.5v131h389v-842q0 -302 -143 -442
q-150 -156 -488 -156zM672 397q99 0 163 61t64 154v4q0 92 -64.5 153.5t-162.5 61.5q-99 0 -163.5 -61.5t-64.5 -155.5v-4q0 -92 64 -152.5t164 -60.5z" />
    <glyph glyph-name="uni0436.bgr" horiz-adv-x="1910" 
d="M1147 1495l-6 -780h57l275 393h432l-404 -543l416 -565h-438l-279 395h-59l6 -395h-383l6 395h-61l-281 -395h-436l416 543l-402 565h438l269 -393h57l-6 780h383z" />
    <glyph glyph-name="uni0438.bgr" horiz-adv-x="1298" 
d="M475 -25q-178 0 -278.5 109.5t-100.5 300.5v723h389v-600q0 -90 42 -138t116 -48t119 48t45 138v600h387v-1108h-387v154q-136 -179 -332 -179z" />
    <glyph glyph-name="uni0439.bgr" horiz-adv-x="1298" 
d="M475 -25q-178 0 -278.5 109.5t-100.5 300.5v723h389v-600q0 -90 42 -138t116 -48t119 48t45 138v600h387v-1108h-387v154q-136 -179 -332 -179zM643 1200q-173 0 -279.5 88.5t-123.5 251.5h227q20 -58 61 -88.5t115 -30.5t115 30.5t61 88.5h228q-13 -162 -121.5 -251
t-282.5 -89z" />
    <glyph glyph-name="uni043A.bgr" horiz-adv-x="1267" 
d="M1280 0h-449l-276 393h-61v-393h-390v1497h390v-780h57l270 391h451l-416 -541z" />
    <glyph glyph-name="uni043F.bgr" horiz-adv-x="1298" 
d="M104 0v1108h390v-156q142 181 331 181q178 0 277.5 -108.5t99.5 -299.5v-725h-387v600q0 91 -42.5 139.5t-115.5 48.5q-74 0 -118.5 -49t-44.5 -139v-600h-390z" />
    <glyph glyph-name="uni0442.bgr" horiz-adv-x="1988" 
d="M104 0v1108h390v-152q139 177 329 177q110 0 193 -47t127 -134q76 90 164 135.5t206 45.5q179 0 279 -106t100 -300v-727h-389v602q0 91 -40.5 138.5t-110.5 47.5q-72 0 -116 -48.5t-44 -137.5v-602h-387v602q0 90 -41.5 138t-112.5 48t-114 -48t-43 -138v-602h-390z" />
    <glyph glyph-name="uni0446.bgr" horiz-adv-x="1380" 
d="M991 -281v281h-184v154q-136 -179 -332 -179q-178 0 -278.5 109.5t-100.5 300.5v723h389v-600q0 -90 42 -138t116 -48t119 48t45 138v600h387v-774h149v-615h-352z" />
    <glyph glyph-name="uni0448.bgr" horiz-adv-x="1988" 
d="M1884 1108v-1108h-389v154q-140 -179 -330 -179q-110 0 -192 47t-127 134q-78 -88 -166.5 -134.5t-204.5 -46.5q-179 0 -279 107t-100 301v725h389v-602q0 -90 40.5 -137t111.5 -47q72 0 116 47.5t44 136.5v602h387v-602q0 -90 41 -137t112 -47q72 0 115 47.5t43 136.5
v602h389z" />
    <glyph glyph-name="uni0449.bgr" horiz-adv-x="2070" 
d="M1679 -281v281h-184v154q-140 -179 -330 -179q-110 0 -192 47t-127 134q-78 -88 -166.5 -134.5t-204.5 -46.5q-179 0 -279 107t-100 301v725h389v-602q0 -90 40.5 -137t111.5 -47q72 0 116 47.5t44 136.5v602h387v-602q0 -90 41 -137t112 -47q72 0 115 47.5t43 136.5v602
h389v-774h148v-615h-353z" />
    <glyph glyph-name="uni044E.bgr" horiz-adv-x="1863" 
d="M494 389v-389h-390v1495h390v-770h147q55 180 211 294t360 114q168 0 304.5 -78t212 -210t75.5 -288v-4q0 -118 -45 -224.5t-123.5 -184.5t-190 -124.5t-237.5 -46.5q-206 0 -362.5 117t-206.5 299h-145zM1212 303q98 0 159 71.5t61 174.5v4q0 105 -63.5 178.5
t-160.5 73.5q-99 0 -159 -71t-60 -177v-4q0 -103 63.5 -176.5t159.5 -73.5z" />
    <glyph glyph-name="aacute.alt" horiz-adv-x="1384" 
d="M563 1212l213 377l361 -116l-303 -261h-271zM555 -25q-98 0 -187.5 40.5t-157 113t-107.5 182t-40 238.5v4q0 131 39.5 241.5t107 184t156.5 114t187 40.5q201 0 338 -160v135h389v-1108h-389v147q-67 -81 -144.5 -126.5t-191.5 -45.5zM672 301q96 0 161.5 71.5
t65.5 180.5v4q0 109 -65.5 180.5t-161.5 71.5q-94 0 -161 -72t-67 -180v-4q0 -108 67 -180t161 -72z" />
    <glyph glyph-name="abreve.alt" horiz-adv-x="1384" 
d="M555 -25q-98 0 -187.5 40.5t-157 113t-107.5 182t-40 238.5v4q0 131 39.5 241.5t107 184t156.5 114t187 40.5q201 0 338 -160v135h389v-1108h-389v147q-67 -81 -144.5 -126.5t-191.5 -45.5zM672 301q96 0 161.5 71.5t65.5 180.5v4q0 109 -65.5 180.5t-161.5 71.5
q-94 0 -161 -72t-67 -180v-4q0 -108 67 -180t161 -72zM711 1208q-173 0 -280 88.5t-124 251.5h228q20 -58 61 -88t115 -30t115 30t61 88h227q-13 -162 -121 -251t-282 -89z" />
    <glyph glyph-name="acircumflex.alt" horiz-adv-x="1384" 
d="M291 1212l262 336h315l262 -336h-249l-172 125l-172 -125h-246zM555 -25q-98 0 -187.5 40.5t-157 113t-107.5 182t-40 238.5v4q0 131 39.5 241.5t107 184t156.5 114t187 40.5q201 0 338 -160v135h389v-1108h-389v147q-67 -81 -144.5 -126.5t-191.5 -45.5zM672 301
q96 0 161.5 71.5t65.5 180.5v4q0 109 -65.5 180.5t-161.5 71.5q-94 0 -161 -72t-67 -180v-4q0 -108 67 -180t161 -72z" />
    <glyph glyph-name="adieresis.alt" horiz-adv-x="1384" 
d="M760 1212v291h332v-291h-332zM332 1212v291h330v-291h-330zM555 -25q-98 0 -187.5 40.5t-157 113t-107.5 182t-40 238.5v4q0 131 39.5 241.5t107 184t156.5 114t187 40.5q201 0 338 -160v135h389v-1108h-389v147q-67 -81 -144.5 -126.5t-191.5 -45.5zM672 301
q96 0 161.5 71.5t65.5 180.5v4q0 109 -65.5 180.5t-161.5 71.5q-94 0 -161 -72t-67 -180v-4q0 -108 67 -180t161 -72z" />
    <glyph glyph-name="agrave.alt" horiz-adv-x="1384" 
d="M555 -25q-98 0 -187.5 40.5t-157 113t-107.5 182t-40 238.5v4q0 131 39.5 241.5t107 184t156.5 114t187 40.5q201 0 338 -160v135h389v-1108h-389v147q-67 -81 -144.5 -126.5t-191.5 -45.5zM672 301q96 0 161.5 71.5t65.5 180.5v4q0 109 -65.5 180.5t-161.5 71.5
q-94 0 -161 -72t-67 -180v-4q0 -108 67 -180t161 -72zM590 1212l-301 261l360 116l211 -377h-270z" />
    <glyph glyph-name="amacron.alt" horiz-adv-x="1384" 
d="M555 -25q-98 0 -187.5 40.5t-157 113t-107.5 182t-40 238.5v4q0 131 39.5 241.5t107 184t156.5 114t187 40.5q201 0 338 -160v135h389v-1108h-389v147q-67 -81 -144.5 -126.5t-191.5 -45.5zM672 301q96 0 161.5 71.5t65.5 180.5v4q0 109 -65.5 180.5t-161.5 71.5
q-94 0 -161 -72t-67 -180v-4q0 -108 67 -180t161 -72zM328 1227v233h768v-233h-768z" />
    <glyph glyph-name="aogonek.alt" horiz-adv-x="1384" 
d="M1296 -170v-166q-57 -8 -120 -8q-145 0 -228.5 49t-83.5 129q0 84 82 166h-55v147q-67 -81 -144.5 -126.5t-191.5 -45.5q-98 0 -187.5 40.5t-157 113t-107.5 182t-40 238.5v4q0 131 39.5 241.5t107 184t156.5 114t187 40.5q201 0 338 -160v135h389v-1108h-86
q-45 -51 -45 -96q0 -42 35 -60t112 -14zM672 301q96 0 161.5 71.5t65.5 180.5v4q0 109 -65.5 180.5t-161.5 71.5q-94 0 -161 -72t-67 -180v-4q0 -108 67 -180t161 -72z" />
    <glyph glyph-name="aring.alt" horiz-adv-x="1384" 
d="M711 1214q-111 0 -191 76.5t-80 184.5t80 184t191 76q114 0 193 -75.5t79 -184.5t-79 -185t-193 -76zM711 1333q60 0 100.5 41t40.5 101t-40.5 101.5t-100.5 41.5t-100 -41.5t-40 -101.5t40 -101t100 -41zM555 -25q-98 0 -187.5 40.5t-157 113t-107.5 182t-40 238.5v4
q0 131 39.5 241.5t107 184t156.5 114t187 40.5q201 0 338 -160v135h389v-1108h-389v147q-67 -81 -144.5 -126.5t-191.5 -45.5zM672 301q96 0 161.5 71.5t65.5 180.5v4q0 109 -65.5 180.5t-161.5 71.5q-94 0 -161 -72t-67 -180v-4q0 -108 67 -180t161 -72z" />
    <glyph glyph-name="aring.alt2" horiz-adv-x="1226" 
d="M422 -25q-163 0 -267 91t-104 251v5q0 169 117 258.5t317 89.5q159 0 267 -43v18q0 182 -222 182q-151 0 -307 -61l-80 272q135 56 265 74q-58 67 -58 154q0 109 79.5 184.5t193.5 75.5q111 0 190.5 -76t79.5 -184q0 -98 -72 -170q121 -35 193 -107q119 -116 119 -352
v-637h-383v117q-135 -142 -328 -142zM561 219q87 0 141 49t54 133v52q-72 28 -154 28q-85 0 -131.5 -36.5t-46.5 -100.5v-4q0 -56 38 -88.5t99 -32.5zM481 1266q0 -60 41 -102t101 -42t99.5 41.5t39.5 102.5q0 60 -39.5 100.5t-99.5 40.5t-101 -40.5t-41 -100.5z" />
    <glyph glyph-name="aringacute.alt" horiz-adv-x="1384" 
d="M561 1802l230 328l350 -115l-310 -213h-270zM711 1214q-111 0 -191 76.5t-80 184.5t80 184t191 76q114 0 193 -75.5t79 -184.5t-79 -185t-193 -76zM711 1333q60 0 100.5 41t40.5 101t-40.5 101.5t-100.5 41.5t-100 -41.5t-40 -101.5t40 -101t100 -41zM555 -25
q-98 0 -187.5 40.5t-157 113t-107.5 182t-40 238.5v4q0 131 39.5 241.5t107 184t156.5 114t187 40.5q201 0 338 -160v135h389v-1108h-389v147q-67 -81 -144.5 -126.5t-191.5 -45.5zM672 301q96 0 161.5 71.5t65.5 180.5v4q0 109 -65.5 180.5t-161.5 71.5q-94 0 -161 -72
t-67 -180v-4q0 -108 67 -180t161 -72z" />
    <glyph glyph-name="aringacute.alt2" horiz-adv-x="1226" 
d="M471 1593l229 328l351 -115l-310 -213h-270zM422 -25q-163 0 -267 91t-104 251v5q0 169 117 258.5t317 89.5q159 0 267 -43v18q0 182 -222 182q-151 0 -307 -61l-80 272q135 56 265 74q-58 67 -58 154q0 109 79.5 184.5t193.5 75.5q111 0 190.5 -76t79.5 -184
q0 -98 -72 -170q121 -35 193 -107q119 -116 119 -352v-637h-383v117q-135 -142 -328 -142zM561 219q87 0 141 49t54 133v52q-72 28 -154 28q-85 0 -131.5 -36.5t-46.5 -100.5v-4q0 -56 38 -88.5t99 -32.5zM481 1266q0 -60 41 -102t101 -42t99.5 41.5t39.5 102.5
q0 60 -39.5 100.5t-99.5 40.5t-101 -40.5t-41 -100.5z" />
    <glyph glyph-name="atilde.alt" horiz-adv-x="1384" 
d="M555 -25q-98 0 -187.5 40.5t-157 113t-107.5 182t-40 238.5v4q0 131 39.5 241.5t107 184t156.5 114t187 40.5q201 0 338 -160v135h389v-1108h-389v147q-67 -81 -144.5 -126.5t-191.5 -45.5zM672 301q96 0 161.5 71.5t65.5 180.5v4q0 109 -65.5 180.5t-161.5 71.5
q-94 0 -161 -72t-67 -180v-4q0 -108 67 -180t161 -72zM897 1212q-87 0 -190 43q-88 37 -129 37q-40 0 -61.5 -21.5t-43.5 -74.5l-186 51q36 159 94.5 232t159.5 73q84 0 192 -45q104 -34 127 -34q40 0 61.5 21t43.5 73l186 -51q-33 -158 -92 -231t-162 -73z" />
    <glyph glyph-name="i.dot" horiz-adv-x="616" 
d="M106 1208v287h404v-287h-404zM115 0v1108h387v-1108h-387z" />
    <glyph glyph-name="uni0386.calt" horiz-adv-x="1628" 
d="M14 0l609 1444h383l610 -1444h-426l-103 258h-555l-102 -258h-416zM649 567h322l-160 406z" />
    <glyph glyph-name="uni0388.calt" horiz-adv-x="1368" 
d="M127 0v1434h1153v-336h-760v-219h688v-314h-688v-227h770v-338h-1163z" />
    <glyph glyph-name="uni0389.calt" horiz-adv-x="1558" 
d="M127 0v1434h397v-537h510v537h398v-1434h-398v545h-510v-545h-397z" />
    <glyph glyph-name="uni038A.calt" horiz-adv-x="669" 
d="M137 0v1434h398v-1434h-398z" />
    <glyph glyph-name="uni038C.calt" horiz-adv-x="1701" 
d="M850 -29q-163 0 -306.5 58.5t-245 158.5t-160 236.5t-58.5 288.5v4q0 152 59.5 289.5t161.5 237.5t246 159t307 59q217 0 394 -99.5t276.5 -269t99.5 -372.5v-4q0 -152 -59.5 -290t-161.5 -238t-246 -159t-307 -59zM854 330q159 0 261 112t102 271v4q0 161 -103 274
t-264 113t-263 -112t-102 -271v-4q0 -158 104.5 -272.5t264.5 -114.5z" />
    <glyph glyph-name="uni038E.calt" horiz-adv-x="1480" 
d="M543 0v537l-547 897h453l294 -523l297 523h445l-545 -891v-543h-397z" />
    <glyph glyph-name="uni038F.calt" horiz-adv-x="1736" 
d="M872 1462q175 0 318.5 -51t237.5 -139.5t145 -206t51 -252.5v-2q0 -294 -270 -494l303 2v-319h-682v315q77 57 127 112t83.5 137t33.5 181v3q0 157 -94.5 256.5t-256.5 99.5q-161 0 -254.5 -99t-93.5 -257v-3q0 -140 62 -242.5t180 -187.5v-315h-680v319l299 -2
q-82 63 -137.5 127t-93 159.5t-37.5 209.5v2q0 130 52.5 247t147.5 206t240 141.5t319 52.5z" />
    <glyph glyph-name="uni0399.calt" horiz-adv-x="669" 
d="M137 0v1434h398v-1434h-398zM395 1532v283h338v-283h-338zM-57 1532v283h338v-283h-338z" />
    <glyph glyph-name="uni03A5.calt" horiz-adv-x="1480" 
d="M543 0v537l-547 897h453l294 -523l297 523h445l-545 -891v-543h-397zM797 1532v283h338v-283h-338zM344 1532v283h338v-283h-338z" />
    <glyph glyph-name="uni0431.srb" horiz-adv-x="1327" 
d="M657 -27q-263 0 -429.5 148.5t-166.5 376.5v2q0 182 98 300.5t281 166.5l-22 12q-121 63 -178.5 125.5t-57.5 155.5q0 102 90 168.5t271 66.5h590v-315l-539 12q-41 0 -41 -25q0 -19 37 -34l184 -84q117 -49 199.5 -97.5t152.5 -113.5t105 -148.5t35 -187.5v-2
q0 -109 -42.5 -205t-120 -167.5t-193 -113t-253.5 -41.5zM666 289q103 0 165 63.5t62 163.5v2q0 102 -65 166t-164 64q-102 0 -165 -67t-63 -163v-2q0 -99 64 -163t166 -64z" />
    <glyph glyph-name="three.alt" horiz-adv-x="1265" 
d="M649 -29q-375 0 -614 254l246 244q81 -81 164.5 -121.5t183.5 -40.5q90 0 141 38t51 99v5q0 124 -229 124h-150v299h148q102 0 151.5 34.5t49.5 92.5v5q0 56 -48.5 89t-130.5 33t-150 -40t-138 -115l-244 229q106 125 239 193.5t326 68.5q237 0 383 -107.5t146 -275.5v-4
q0 -233 -216 -332q252 -85 252 -321v-4q0 -196 -151 -321.5t-410 -125.5z" />
    <glyph glyph-name="registered.alt" horiz-adv-x="1699" 
d="M848 -29q-153 0 -290.5 60t-235.5 160.5t-155.5 237t-57.5 284.5v4q0 149 58 286t156.5 238t237 161t291.5 60t290.5 -59.5t235.5 -160t155.5 -237t57.5 -284.5v-4q0 -149 -58 -286t-156.5 -238.5t-237 -161.5t-291.5 -60zM848 55q138 0 260.5 53t209 142t137 211
t50.5 256v4q0 179 -85 330t-235.5 240t-332.5 89q-138 0 -260.5 -53t-209 -142.5t-137 -211.5t-50.5 -256v-4q0 -133 50 -254.5t136 -210t208 -141t259 -52.5zM524 344v789h369q175 0 264 -89q68 -68 68 -180v-4q0 -171 -162 -239l188 -277h-252l-159 240h-97v-240h-219z
M743 754h144q56 0 87.5 25.5t31.5 68.5v4q0 46 -32 70t-87 24h-144v-192z" />
    <glyph glyph-name="one.sup_alt" 
d="M739 854h-616v184h207v416l-183 -57l-53 176l295 98h166v-633h184v-184z" />
    <glyph glyph-name="one.inf_alt" 
d="M739 -266h-616v184h207v416l-183 -58l-53 177l295 98h166v-633h184v-184z" />
    <glyph glyph-name="zero.num" 
d="M408 606q-153 0 -246.5 114t-93.5 302v16q0 190 95 304t249 114q152 0 247 -114t95 -302v-16q0 -188 -96.5 -303t-249.5 -115zM410 1264q-56 0 -87.5 -52t-31.5 -159v-43q0 -105 31.5 -157t87.5 -52t88 51.5t32 157.5v43q0 104 -33 157.5t-87 53.5z" />
    <glyph glyph-name="one.num" horiz-adv-x="665" 
d="M498 629h-226v600l-155 -49l-54 176l269 90h166v-817z" />
    <glyph glyph-name="one.num_alt" 
d="M739 629h-616v184h207v416l-183 -58l-53 177l295 98h166v-633h184v-184z" />
    <glyph glyph-name="two.num" 
d="M92 629v178l299 233q55 42 78 73t23 67q0 35 -25 56t-64 21q-79 0 -167 -102l-148 129q65 84 142 127t188 43q136 0 218.5 -69.5t82.5 -180.5q0 -87 -39 -145t-131 -125l-158 -119h334v-186h-633z" />
    <glyph glyph-name="three.num" 
d="M403 606q-207 0 -342 129l123 148q101 -88 209 -88q48 0 78.5 23t30.5 63q0 84 -137 84h-97l-30 116l204 168h-323v185h588v-164l-215 -170q104 -13 167.5 -68t63.5 -155q0 -123 -89.5 -197t-230.5 -74z" />
    <glyph glyph-name="four.num" 
d="M666 776v-151h-215v151h-365l-25 185l355 481h250v-502h98v-164h-98zM457 936v285l-209 -285h209z" />
    <glyph glyph-name="five.num" 
d="M399 608q-185 0 -336 121l117 156q113 -86 213 -86q51 0 83 26t32 68q0 43 -32.5 67.5t-88.5 24.5q-78 0 -131 -35l-139 72l35 412h538v-189h-368l-13 -123q58 21 144 21q121 0 198.5 -64t77.5 -182q0 -137 -90.5 -213t-239.5 -76z" />
    <glyph glyph-name="six.num" 
d="M420 606q-148 0 -236 88q-106 106 -106 312v6q0 211 98.5 327.5t282.5 116.5q142 0 246 -72l-87 -172q-80 56 -157 56q-66 0 -107 -44t-47 -122q75 47 174 47q106 0 180 -63t74 -185q0 -137 -88.5 -216t-226.5 -79zM414 780q49 0 77.5 30.5t28.5 78.5t-28 78t-78 30
q-53 0 -81 -29t-28 -79v-2q0 -46 30 -77t79 -30z" />
    <glyph glyph-name="seven.num" 
d="M375 625h-248l342 610h-365v199h619v-177z" />
    <glyph glyph-name="eight.num" 
d="M410 608q-147 0 -236.5 66t-89.5 176q0 135 133 197q-111 62 -111 180q0 100 83.5 164.5t220.5 64.5q135 0 219 -64t84 -165q0 -111 -111 -180q65 -32 99 -77.5t34 -119.5q0 -111 -90 -176.5t-235 -65.5zM410 1292q-46 0 -73.5 -25.5t-27.5 -64.5q0 -42 28 -68t73 -26
q43 0 71.5 26t28.5 68q0 38 -28.5 64t-71.5 26zM410 967q-50 0 -82.5 -27.5t-32.5 -71.5q0 -43 30.5 -70.5t84.5 -27.5q53 0 82.5 27t29.5 71t-31 71.5t-81 27.5z" />
    <glyph glyph-name="nine.num" 
d="M399 1456q150 0 238 -88q104 -104 104 -309v-8q0 -210 -96 -326.5t-280 -116.5q-147 0 -265 80l86 170q77 -61 172 -61q66 0 107.5 41t52.5 116q-85 -47 -176 -47q-51 0 -96 15t-82 44.5t-58.5 78.5t-21.5 112q0 137 90 218t225 81zM408 1059q52 0 79 29.5t27 80.5v2
q0 49 -29 80.5t-77 30.5q-49 0 -78 -31.5t-29 -81.5q0 -49 28.5 -79.5t78.5 -30.5z" />
    <glyph glyph-name="zero.den" 
d="M408 -23q-153 0 -246.5 114t-93.5 302v17q0 190 94.5 303.5t249.5 113.5q152 0 247 -113.5t95 -301.5v-17q0 -188 -96.5 -303t-249.5 -115zM410 635q-56 0 -87.5 -52t-31.5 -159v-43q0 -105 31.5 -157t87.5 -52t88 51.5t32 157.5v43q0 104 -33 157.5t-87 53.5z" />
    <glyph glyph-name="one.den" horiz-adv-x="665" 
d="M498 0h-226v600l-155 -49l-54 176l269 90h166v-817z" />
    <glyph glyph-name="one.den_alt" 
d="M739 0h-616v184h207v416l-183 -57l-53 176l295 98h166v-633h184v-184z" />
    <glyph glyph-name="two.den" 
d="M92 0v178l299 234q56 43 78.5 73t22.5 66q0 35 -25 56.5t-64 21.5q-78 0 -167 -103l-148 129q65 84 142 127t188 43q136 0 218.5 -69.5t82.5 -180.5q0 -87 -39 -145t-131 -125l-158 -119h334v-186h-633z" />
    <glyph glyph-name="three.den" 
d="M403 -23q-207 0 -342 129l123 148q101 -88 209 -88q48 0 78.5 23t30.5 63q0 84 -137 84h-97l-30 117l204 168h-323v184h588v-164l-215 -170q104 -13 167.5 -68t63.5 -155q0 -123 -89.5 -197t-230.5 -74z" />
    <glyph glyph-name="four.den" 
d="M666 147v-151h-215v151h-365l-25 185l355 481h250v-502h98v-164h-98zM457 307v285l-209 -285h209z" />
    <glyph glyph-name="five.den" 
d="M399 -20q-186 0 -336 120l117 156q113 -86 213 -86q51 0 83 26t32 68q0 43 -32.5 67.5t-88.5 24.5q-79 0 -131 -34l-139 71l35 412h538v-189h-368l-13 -122q56 20 144 20q121 0 198.5 -64t77.5 -182q0 -137 -90 -212.5t-240 -75.5z" />
    <glyph glyph-name="six.den" 
d="M420 -23q-147 0 -236 89q-106 106 -106 311v6q0 211 98.5 327.5t282.5 116.5q143 0 246 -71l-87 -172q-78 55 -157 55q-66 0 -107 -44t-47 -122q75 47 174 47q106 0 180 -63t74 -185q0 -137 -88.5 -216t-226.5 -79zM414 152q49 0 77.5 30t28.5 78q0 49 -28 79t-78 30
q-53 0 -81 -29t-28 -80v-2q0 -46 30 -76.5t79 -29.5z" />
    <glyph glyph-name="seven.den" 
d="M375 -6h-248l342 612h-365v199h619v-176z" />
    <glyph glyph-name="eight.den" 
d="M410 -23q-145 0 -235.5 67t-90.5 177q0 135 133 197q-111 62 -111 180q0 100 83.5 164.5t220.5 64.5q135 0 219 -64t84 -165q0 -111 -111 -180q65 -32 99 -77.5t34 -119.5q0 -111 -90.5 -177.5t-234.5 -66.5zM410 664q-46 0 -73.5 -26t-27.5 -65q0 -42 28 -68t73 -26
q43 0 71.5 26t28.5 68q0 38 -28.5 64.5t-71.5 26.5zM410 338q-50 0 -82.5 -27t-32.5 -71q0 -43 30.5 -71t84.5 -28q53 0 82.5 27.5t29.5 71.5t-31 71t-81 27z" />
    <glyph glyph-name="nine.den" 
d="M399 827q150 0 238 -88q104 -104 104 -309v-8q0 -210 -96.5 -327.5t-279.5 -117.5q-145 0 -265 82l86 170q77 -61 172 -61q66 0 107.5 41.5t52.5 116.5q-85 -47 -176 -47q-69 0 -125.5 25t-94.5 83t-38 141q0 137 90 218t225 81zM408 430q52 0 79 30t27 81v2q0 49 -29 80
t-77 30q-49 0 -78 -31t-29 -81q0 -49 28.5 -80t78.5 -31z" />
    <glyph glyph-name="onehalf.alt" horiz-adv-x="1843" 
d="M731 629h-616v184h207v416l-183 -58l-53 177l295 98h166v-633h184v-184zM1137 0v178l299 234q55 42 77.5 72.5t22.5 66.5q0 35 -24.5 56.5t-63.5 21.5q-79 0 -168 -103l-147 129q65 84 141.5 127t187.5 43q136 0 218.5 -69.5t82.5 -180.5q0 -87 -39 -145t-131 -125
l-157 -119h333v-186h-632zM391 0l524 750l449 684h170l-522 -750l-451 -684h-170z" />
    <glyph glyph-name="onethird.alt" horiz-adv-x="1843" 
d="M731 629h-616v184h207v416l-183 -58l-53 177l295 98h166v-633h184v-184zM1448 -23q-207 0 -342 129l123 148q101 -88 209 -88q48 0 78 23t30 63q0 84 -137 84h-96l-31 117l205 168h-324v184h588v-164l-215 -170q104 -13 167.5 -68t63.5 -155q0 -123 -89 -197t-230 -74z
M371 0l524 750l448 684h170l-522 -750l-450 -684h-170z" />
    <glyph glyph-name="onequarter.alt" horiz-adv-x="1843" 
d="M731 629h-616v184h207v416l-183 -58l-53 177l295 98h166v-633h184v-184zM401 0l525 750l448 684h170l-522 -750l-451 -684h-170zM1690 147v-151h-215v151h-365l-25 185l355 481h250v-502h98v-164h-98zM1481 307v285l-209 -285h209z" />
    <glyph glyph-name="onefifth.alt" horiz-adv-x="1843" 
d="M731 629h-616v184h207v416l-183 -58l-53 177l295 98h166v-633h184v-184zM1444 -20q-186 0 -336 120l117 156q113 -86 213 -86q51 0 82.5 25.5t31.5 68.5t-32 67.5t-88 24.5q-80 0 -132 -34l-139 71l35 412h539v-189h-369l-12 -122q56 20 143 20q121 0 199 -64t78 -182
q0 -137 -90 -212.5t-240 -75.5zM381 0l524 750l449 684h170l-523 -750l-450 -684h-170z" />
    </font>
</defs>
</svg>
